Ошибка

Другой мир / Otherworld / Y Mabinogi (валлийская мифология) [ rus sub]

Ответить на тему
 
Автор Сообщение

raidoho

Пол: Пол:Муж

Стаж: 4 года 3 месяца

Сообщений: 2

Рейтинг

post 14-Дек-2016 20:06 0[+]

[Цитировать] 

Другой мир / Otherworld / Y Mabinogi
Страна: Великобритания
Жанр: анимация с элементами игрового кино
Продолжительность: 1:43:36
Год выпуска: 2003
Перевод: Субтитры
Русские субтитры: есть
Режиссёр: Дерек Хайес / Derek Hayes
Описание: "Другой мир" (Y Mabinogi) - 90 минутный анимационный фильм на основе знаменитых валлийских легенд "Мабиногион". Фильм сочетает в себе выразительные черты искусства анимации с игровым кино, которое придаёт повествованию уникальный современный контекст.

Доп.информация:

Качество: SATRip-AVC
Формат: MP4
Видео: AVC1, 720x576 (16:9), 25fps, 1 300 Kbps
Аудио: AAC, 160 kbps, 2.0 ch, 48 kHz (английский)
Субтитры: русские
General
Complete name : D:\torrents\Otherworld\Otherworld.mp4
Format : MPEG-4
Format profile : Base Media
Codec ID : isom
File size : 1.06 GiB
Duration : 1h 43mn
Overall bit rate : 1 464 Kbps
Encoded date : UTC 2005-12-30 14:19:03
Tagged date : UTC 2005-12-30 14:19:03

Video
ID : 1
Format : AVC
Format/Info : Advanced Video Codec
Format profile : High@L3.0
Format settings, CABAC : Yes
Format settings, ReFrames : 6 frames
Codec ID : avc1
Codec ID/Info : Advanced Video Coding
Duration : 1h 43mn
Bit rate mode : Variable
Bit rate : 1 300 Kbps
Maximum bit rate : 4 689 Kbps
Width : 720 pixels
Height : 576 pixels
Display aspect ratio : 16:9
Frame rate mode : Constant
Frame rate : 25.000 fps
Original frame rate : 12.500 fps
Standard : PAL
Resolution : 8 bits
Colorimetry : 4:2:0
Scan type : Progressive
Bits/(Pixel*Frame) : 0.125
Stream size : 963 MiB (89%)
Writing library : x264 core 42 svn-386M
Encoding settings : cabac=1 / ref=3 / deblock=1:-2:-2 / analyse=0x3:0x113 / me=hex / subme=6 / brdo=1 / mixed_ref=1 / me_range=16 / chroma_me=1 / trellis=1 / 8x8dct=1 / cqm=0 / chroma_qp_offset=0 / slices=1 / bframes=3 / b_pyramid=1 / b_adapt=1 / b_bias=0 / direct=2 / wpredb=1 / keyint=200 / keyint_min=25 / scenecut=40 / pass=2 / bitrate=1300 / ratetol=1.0 / rceq='blurCplx^(1-qComp)' / qcomp=0.60 / qpmin=10 / qpmax=51 / qpstep=4 / cplxblur=20.0 / qblur=0.5 / ip_ratio=1.40 / pb_ratio=1.30
Encoded date : UTC 2005-12-30 14:19:03
Tagged date : UTC 2005-12-30 14:21:47

Audio
ID : 2
Format : AAC
Format/Info : Advanced Audio Codec
Format version : Version 4
Format profile : LC
Format settings, SBR : No
Codec ID : 40
Duration : 1h 43mn
Bit rate mode : Variable
Bit rate : 160 Kbps
Maximum bit rate : 185 Kbps
Channel(s) : 2 channels
Channel positions : L R
Sampling rate : 48.0 KHz
Stream size : 119 MiB (11%)
Encoded date : UTC 2005-12-30 14:21:27
Tagged date : UTC 2005-12-30 14:21:47
info [Профиль]  [ЛС] 
Показать сообщения:    
Ответить на тему

Текущее время: 27-Апр 11:17

Часовой пояс: GMT + 4



Вы не можете начинать темы
Вы не можете отвечать на сообщения
Вы не можете редактировать свои сообщения
Вы не можете удалять свои сообщения
Вы не можете голосовать в опросах
Вы не можете прикреплять файлы к сообщениям
Вы не можете скачивать файлы