Ошибка

Гранд Тур / The Grand Tour / Сезон 1 / Серии 1-13(13) [2016, Автопередача, WEB-DLRip 1080p] Jetvis Studio

Страницы:  1, 2  След.

Ответить на тему
 
Автор Сообщение

D2

Пол: Пол:Муж

Стаж: 5 лет 3 месяца

Сообщений: 413

Россия
Рейтинг

post 09-Дек-2016 02:21 5[+]

[Цитировать] 

Сезон: 1 | Серии: 1-13(13)


Гранд Тур | The Grand Tour


Год выпуска: 2016
Страна: США, Amazon Studios
Жанр: Автопередача
Продолжительность: ~ 01:11:00
Перевод: Профессиональный (многоголосый закадровый) Jetvis Studio & RG.paravozik
Субтитры: отсутствуют
Режиссёр:
  • Фил Чурчуорд, Брайан Клейн

В ролях:
  • Джереми Кларксон, Ричард Хаммонд, Джеймс Мэй, Майк Скиннер, Жером Д’Амброзио, Арми Хаммер, Джереми Реннер, Кэрол Вордерман

Описание:
  • Предлагаем вашему вниманию долгожданный многими фанатами автомобилей проект с легендарными ведущими Джереми Кларксоном, Джеймом Мэйем и Ричардом Хаммондом. В центре внимания проекта оказываются автомобили со всего света. Ведущие отправляются в большое путешествие по миру, чтобы найти раритетные модели авто или же невероятные суперкары. В каждом новом городе будет снят очередной эпизод этого шоу, а ведущие проведут тест драйв местных автомобилей, рассказав о них кое-что по-настоящему интересное.






  • Качество: WEB-DLRip 1080p
  • Формат: MKV
  • Видео кодек: MPEG4/AVC
  • Аудио кодек: AC-3
  • Видео: 1920x1080 (16:9), 23,976 fps, ~12 288 kbps
  • Аудио: 48 kHz, 2 ch, 192 kbps
  • Аудио: 48 kHz, 2 ch, 192 kbps


General
Unique ID : 216177868163834337242848120532090658135 (0xA2A257CC4BA825AABC1DB308E9229D57)
Format : Matroska
Format version : Version 4 / Version 2
File size : 6.15 GiB
Duration : 1h 11mn
Overall bit rate : 12.4 Mbps
Encoded date : UTC 2016-12-29 15:55:43
Writing application : mkvmerge v9.4.2 ('So High') 64bit
Writing library : libebml v1.3.4 + libmatroska v1.4.5

Video
ID : 1
Format : AVC
Format/Info : Advanced Video Codec
Format profile : High@L4.1
Format settings, CABAC : Yes
Format settings, ReFrames : 3 frames
Codec ID : V_MPEG4/ISO/AVC
Duration : 1h 11mn
Bit rate : 12.0 Mbps
Width : 1 920 pixels
Height : 1 080 pixels
Display aspect ratio : 16:9
Frame rate mode : Constant
Frame rate : 23.976 (24000/1001) fps
Color space : YUV
Chroma subsampling : 4:2:0
Bit depth : 8 bits
Scan type : Progressive
Bits/(Pixel*Frame) : 0.241
Stream size : 5.95 GiB (97%)
Writing library : x264 core 116 r2019M 9cc407d
Encoding settings : cabac=1 / ref=3 / deblock=1:0:0 / analyse=0x3:0x133 / me=hex / subme=7 / psy=1 / psy_rd=1.00:0.20 / mixed_ref=1 / me_range=16 / chroma_me=1 / trellis=1 / 8x8dct=1 / cqm=0 / deadzone=21,11 / fast_pskip=1 / chroma_qp_offset=-3 / threads=12 / sliced_threads=0 / nr=0 / decimate=1 / interlaced=0 / bluray_compat=0 / constrained_intra=0 / bframes=3 / b_pyramid=1 / b_adapt=2 / b_bias=0 / direct=3 / weightb=1 / open_gop=0 / weightp=2 / keyint=230 / keyint_min=23 / scenecut=40 / intra_refresh=0 / rc_lookahead=40 / rc=abr / mbtree=1 / bitrate=12000 / ratetol=1.0 / qcomp=0.60 / qpmin=10 / qpmax=51 / qpstep=4 / ip_ratio=1.40 / aq=1:1.00
Language : English
Default : Yes
Forced : No

Audio #1
ID : 2
Format : AC-3
Format/Info : Audio Coding 3
Mode extension : CM (complete main)
Format settings, Endianness : Big
Codec ID : A_AC3
Duration : 1h 11mn
Bit rate mode : Constant
Bit rate : 192 Kbps
Channel(s) : 2 channels
Channel positions : Front: L R
Sampling rate : 48.0 KHz
Frame rate : 31.250 fps (1536 spf)
Compression mode : Lossy
Stream size : 97.6 MiB (2%)
Default : Yes
Forced : Yes

Audio #2
ID : 3
Format : AC-3
Format/Info : Audio Coding 3
Mode extension : CM (complete main)
Format settings, Endianness : Big
Codec ID : A_AC3
Duration : 1h 11mn
Bit rate mode : Constant
Bit rate : 192 Kbps
Channel(s) : 2 channels
Channel positions : Front: L R
Sampling rate : 48.0 KHz
Frame rate : 31.250 fps (1536 spf)
Compression mode : Lossy
Stream size : 97.6 MiB (2%)
Default : No
Forced : No
info [Профиль]  [ЛС] 

D2

Пол: Пол:Муж

Стаж: 5 лет 3 месяца

Сообщений: 413

Россия
Рейтинг

post 09-Дек-2016 02:34 (спустя 12 минут) [-]0[+]

[Цитировать] 

Устал ждать пока появится новая серия в соседней раздаче + FullHD Улыбаюсь
Постараюсь оперативно обновлять раздачу.

_________________
info [Профиль]  [ЛС] 

L

Пол: Пол:Муж

Стаж: 6 лет 10 месяцев

Сообщений: 11290

Украина
Рейтинг

post 09-Дек-2016 11:26 (спустя 8 часов) [-]0[+]

[Цитировать] 

D2
Эм.
Все есть же

_________________
info [Профиль]  [ЛС] 

D2

Пол: Пол:Муж

Стаж: 5 лет 3 месяца

Сообщений: 413

Россия
Рейтинг

post 09-Дек-2016 11:42 (спустя 16 минут) [-]1[+]

[Цитировать] 

L
Мне нравится именно озвучка Jetvis. До этого столько сезонов ТопГира пересмотрел с их озвучкой, что к другой привыкать не хочу Улыбаюсь

_________________
info [Профиль]  [ЛС] 

L

Пол: Пол:Муж

Стаж: 6 лет 10 месяцев

Сообщений: 11290

Украина
Рейтинг

post 09-Дек-2016 13:51 (спустя 2 часа 9 минут) [-]0[+]

[Цитировать] 

D2
А, я не понял просто фразу первую Улыбаюсь

_________________
info [Профиль]  [ЛС] 

D2

Пол: Пол:Муж

Стаж: 5 лет 3 месяца

Сообщений: 413

Россия
Рейтинг

post 09-Дек-2016 14:18 (спустя 27 минут) [-]0[+]

[Цитировать] 

L
Подумал, что я на тебя наговариваю...? Улыбаюсь

_________________
info [Профиль]  [ЛС] 

L

Пол: Пол:Муж

Стаж: 6 лет 10 месяцев

Сообщений: 11290

Украина
Рейтинг

post 09-Дек-2016 14:50 (спустя 32 минуты) [-]0[+]

[Цитировать] 

D2
Не, мне показалось ты fullhd где-то видишь с двумя сериями Смеюсь

_________________
info [Профиль]  [ЛС] 

D2

Пол: Пол:Муж

Стаж: 5 лет 3 месяца

Сообщений: 413

Россия
Рейтинг

post 12-Дек-2016 00:28 (спустя 2 дня 9 часов) [-]1[+]

[Цитировать] 

Раздача обновлена.
Добавлена 4-я серия.

_________________
info [Профиль]  [ЛС] 

Joker360

Пол: Пол:Муж

Стаж: 6 лет 11 месяцев

Сообщений: 234

Россия
Рейтинг

post 19-Дек-2016 21:26 (спустя 7 дней) [-]0[+]

[Цитировать] 

Ждем)
info [Профиль]  [ЛС] 

D2

Пол: Пол:Муж

Стаж: 5 лет 3 месяца

Сообщений: 413

Россия
Рейтинг

post 20-Дек-2016 00:47 (спустя 3 часа) [-]0[+]

[Цитировать] 

Joker360
Да я сам жду. Уже нервы сдают...уроды. Злой

пїЅпїЅпїЅпїЅпїЅпїЅпїЅпїЅпїЅ пїЅпїЅпїЅпїЅпїЅпїЅ 2 часа 9 минут 39 секунд:

Раздача обновлена.
Добавлена 5-я серия.

Надоело ждать!...Собрал файл сам. По звуку вроде попал, надеюсь вы оцените)

_________________
info [Профиль]  [ЛС] 

Joker360

Пол: Пол:Муж

Стаж: 6 лет 11 месяцев

Сообщений: 234

Россия
Рейтинг

post 20-Дек-2016 02:36 (спустя 1 час 49 минут) [-]0[+]

[Цитировать] 

Спасибо
info [Профиль]  [ЛС] 

D2

Пол: Пол:Муж

Стаж: 5 лет 3 месяца

Сообщений: 413

Россия
Рейтинг

post 20-Дек-2016 23:06 (спустя 20 часов) [-]1[+]

[Цитировать] 

Кому нибудь нужна вообще дорожка в файле?

_________________
info [Профиль]  [ЛС] 

D2

Пол: Пол:Муж

Стаж: 5 лет 3 месяца

Сообщений: 413

Россия
Рейтинг

post 28-Дек-2016 00:02 (спустя 7 дней) [-]0[+]

[Цитировать] 

Раздача обновлена.
Добавлена 6-я серия.

_________________
info [Профиль]  [ЛС] 

L O S T

Пол: Пол:Муж

Стаж: 5 лет 7 месяцев

Сообщений: 161

Россия
Рейтинг

post 28-Дек-2016 01:36 (спустя 1 час 33 минуты) [-]0[+]

[Цитировать] 

Top Gear: Возвращение…

… или Grand Tour: Начало — на самом деле, не важно, какое название будет носить новая передача Джереми Кларксон. Важно другое: «примат, который побрился и одел рубашку», а также ушедший с Би-Би-Си из-за разногласий с продюсерами и, соответственно, оставивший, наверное, дело всей жизни в лице знаменитого авто-шоу, которое за многие годы существования собрало миллионы поклонников по всему миру, — теперь седовласый старикан, но все такой же озорной весельчак Джереми — вернулся. И сделал он это в сопровождении своих старых добрых друзей и по совместительству коллег, Ричардом Хаммондом и Джеймсом Мэем, которые не остались полировать стулья студии Топ Гира, а ушли в след за своим товарищем.

Пристанище популярная в автомобильном мире троица нашла у интернет-сервиса Amazon, который не поскупился выделить невероятные для телевидения деньги на создание нового авто-шоу со старыми хедлайнерами. Только всмотритесь в эти цифры: 250 млн долларов на 36 выпусков! Конечно, любое капиталовложение в киноиндустрии может претерпеть крах, но Кларксон и КО, судя по всему, готовы сделать все, чтобы доказать Би-Би-Си, кто был в здании Батя. «Гранд Тур», прототипом которого является предыдущее шоу Джереми, берет от последнего самое лучшее и перезагружает все именно так, как следует (как не следует, уже показали Би-Би-Си с новым ведущим). Не хватает, пожалуй, лишь гонщика Стига, никогда не снимающего шлем, но зато есть гоночный трек, похожий на смертельный вирус Эбола, и столь же опасный, т. к. расположен в глухом районе Британии с лужайкой престарелой леди поблизости и пастбищем овец, самые крутые гиперкары планеты огромной стоимости и обилие острот и шуток обо всем.

Чего только стоит рубрика, где ведущие ждут знаменитых гостей, но пока еще ни разу не дожидались, хех. Уж не говорю про подколы друг на другом — без этого вообще никуда. Кларксон и КО просто развлекаются, получая удовольствие от того, чем они занимаются, а в формате нового теле-шоу это выглядит еще более органично, чем было раньше. «Гранд Тур» с его бюджетом и размахом рвет границы телевидения и выглядит дорогостоящим сериалом, каждая серия которого, будто фильм популярной франшизы. Эффектно? Увольте! Автомобильный косплей на «Безумного Макса» Джорджа Миллера в первом же выпуске не даст соврать: уровень съемки с шикарными панорамами, безукоризненной детализацией дорогущих авто и просто показами околомашинной среды — высший пилотаж. Студия же — переносной шатер — будет кататься по миру вместе с ведущими программы, которые уже похвалились, что съемки шоу будут проходить по всей планете, иногда возвращаясь, конечно, на гоночный трек в Британии для теста автомобилей и шуток про коммунистов, связанных с новым водителем — не Стигом, но тоже ничего.

В общем и целом, возвращение Джереми Кларксон удалось со всех точек зрения. «Гранд Тур» — это дорогое, качественное шоу с настоящим английским юморком и старым добрым трио, развлекающим народ своим экстравагантным видением авто и не только.
info [Профиль]  [ЛС] 

D2

Пол: Пол:Муж

Стаж: 5 лет 3 месяца

Сообщений: 413

Россия
Рейтинг

post 03-Янв-2017 17:31 (спустя 6 дней) [-]0[+]

[Цитировать] 

Раздача обновлена.
Добавлена 7-я и 8-я серия.

_________________
info [Профиль]  [ЛС] 

Fire Ball

Стаж: 4 года 4 месяца

Сообщений: 738

Предупреждений: 3

Рейтинг

post 04-Янв-2017 03:13 (спустя 9 часов) [-]0[+]

[Цитировать] 

D2 писал(а):

Кому нибудь нужна вообще дорожка в файле?
Нужна! Улыбаюсь Лишней точно не будет.

Как кино кстати?

_________________
info [Профиль]  [ЛС] 

Persin

Пол: Пол:Муж

Стаж: 6 лет 11 месяцев

Сообщений: 186

Россия
Рейтинг

post 04-Янв-2017 10:06 (спустя 6 часов) [-]2[+]

[Цитировать] 

о боги это просто убер крутой спец выпуск 7 и 8 серия
спасибо им что они продолжать творить это anime_4

_________________
info [Профиль]  [ЛС] 

k3k0

Пол: Пол:Муж

Стаж: 7 лет 4 месяца

Сообщений: 105

Россия
Рейтинг

post 04-Янв-2017 10:11 (спустя 5 минут) [-]-1[+]

[Цитировать] 

По порядку перечислю огрехи раздачи:
1. 5 серия. Отсутствие английской дорожки + отстутствие русских и английских субтитров
General
Unique ID : 267229041184099970094655636767686024876 (0xC90A70F546FE12BF9C2DABB1E3945EAC)
Complete name : D:\TORRENT\The Grand Tour S01 FullHD Jetvis Studio\The.Grand.Tour.s01e05.WEBRip.1080p.Jetvis Studio.RG.Paravozik.mkv
Format : Matroska
Format version : Version 4 / Version 2
File size : 3.98 GiB
Duration : 1h 1mn
Overall bit rate : 9 241 Kbps
Writing application : Lavf57.40.101
Writing library : Lavf57.40.101 / Lavf57.40.101

Video
ID : 1
Format : AVC
Format/Info : Advanced Video Codec
Format profile : Main@L4
Format settings, CABAC : Yes
Format settings, ReFrames : 1 frame
Format settings, GOP : M=1, N=25
Codec ID : V_MPEG4/ISO/AVC
Duration : 1h 1mn
Width : 1 920 pixels
Height : 1 080 pixels
Display aspect ratio : 16:9
Frame rate mode : Constant
Frame rate : 29.970 (30000/1001) fps
Color space : YUV
Chroma subsampling : 4:2:0
Bit depth : 8 bits
Scan type : Progressive
Default : Yes
Forced : No
DURATION : 01:01:43.300000000

Audio
ID : 2
Format : AAC
Format/Info : Advanced Audio Codec
Format profile : LC
Codec ID : A_AAC
Duration : 1h 1mn
Channel(s) : 2 channels
Channel positions : Front: L R
Sampling rate : 44.1 KHz
Frame rate : 43.066 fps (1024 spf)
Compression mode : Lossy
Default : Yes
Forced : No
DURATION : 01:01:43.397000000
2. 6 серия. Остутствие английской дорожки + отстутствие русских и английских субтитров
General
Unique ID : 32833747765641069100351232893983876623 (0x18B38CBFBF4A9552D0B0B60B5487660F)
Complete name : D:\TORRENT\The Grand Tour S01 FullHD Jetvis Studio\The.Grand.Tour.s01e06.WEBRip.1080p.Jetvis Studio.RG.Paravozik.mkv
Format : Matroska
Format version : Version 4 / Version 2
File size : 3.98 GiB
Duration : 1h 1mn
Overall bit rate : 9 245 Kbps
Writing application : Lavf57.40.101
Writing library : Lavf57.40.101 / Lavf57.40.101

Video
ID : 1
Format : AVC
Format/Info : Advanced Video Codec
Format profile : Main@L4
Format settings, CABAC : Yes
Format settings, ReFrames : 1 frame
Format settings, GOP : M=1, N=25
Codec ID : V_MPEG4/ISO/AVC
Duration : 1h 1mn
Width : 1 920 pixels
Height : 1 080 pixels
Display aspect ratio : 16:9
Frame rate mode : Constant
Frame rate : 29.970 (30000/1001) fps
Color space : YUV
Chroma subsampling : 4:2:0
Bit depth : 8 bits
Scan type : Progressive
Default : Yes
Forced : No
DURATION : 01:01:33.623000000

Audio
ID : 2
Format : AAC
Format/Info : Advanced Audio Codec
Format profile : LC
Codec ID : A_AAC
Duration : 1h 1mn
Channel(s) : 2 channels
Channel positions : Front: L R
Sampling rate : 44.1 KHz
Frame rate : 43.066 fps (1024 spf)
Compression mode : Lossy
Default : Yes
Forced : No
DURATION : 01:01:33.714000000
3. 7 серия. Английская дорожка 2-канальная, битрейт не соответствует описанию + отсутствие русских и английских субтитров.
General
Unique ID : 228400474167203378481392175541189410046 (0xABD454CCDF05439CA46BBD106C54FCFE)
Complete name : D:\TORRENT\The Grand Tour S01 FullHD Jetvis Studio\The.Grand.Tour.s01e07.WEBRip.1080p.Jetvis Studio.RG.Paravozik.mkv
Format : Matroska
Format version : Version 4 / Version 2
File size : 3.83 GiB
Duration : 44mn 43s
Overall bit rate : 12.3 Mbps
Encoded date : UTC 2016-12-31 16:11:58
Writing application : mkvmerge v9.4.2 ('So High') 64bit
Writing library : libebml v1.3.4 + libmatroska v1.4.5

Video
ID : 1
Format : AVC
Format/Info : Advanced Video Codec
Format profile : High@L4.1
Format settings, CABAC : Yes
Format settings, ReFrames : 3 frames
Codec ID : V_MPEG4/ISO/AVC
Duration : 44mn 41s
Bit rate : 12.0 Mbps
Width : 1 920 pixels
Height : 1 080 pixels
Display aspect ratio : 16:9
Frame rate mode : Constant
Frame rate : 23.976 (24000/1001) fps
Color space : YUV
Chroma subsampling : 4:2:0
Bit depth : 8 bits
Scan type : Progressive
Bits/(Pixel*Frame) : 0.241
Stream size : 3.71 GiB (97%)
Writing library : x264 core 116 r2019M 9cc407d
Encoding settings : cabac=1 / ref=3 / deblock=1:0:0 / analyse=0x3:0x133 / me=hex / subme=7 / psy=1 / psy_rd=1.00:0.20 / mixed_ref=1 / me_range=16 / chroma_me=1 / trellis=1 / 8x8dct=1 / cqm=0 / deadzone=21,11 / fast_pskip=1 / chroma_qp_offset=-3 / threads=12 / sliced_threads=0 / nr=0 / decimate=1 / interlaced=0 / bluray_compat=0 / constrained_intra=0 / bframes=3 / b_pyramid=1 / b_adapt=2 / b_bias=0 / direct=3 / weightb=1 / open_gop=0 / weightp=2 / keyint=230 / keyint_min=23 / scenecut=40 / intra_refresh=0 / rc_lookahead=40 / rc=abr / mbtree=1 / bitrate=12000 / ratetol=1.0 / qcomp=0.60 / qpmin=10 / qpmax=51 / qpstep=4 / ip_ratio=1.40 / aq=1:1.00
Default : Yes
Forced : No

Audio #1
ID : 2
Format : AC-3
Format/Info : Audio Coding 3
Mode extension : CM (complete main)
Format settings, Endianness : Big
Codec ID : A_AC3
Duration : 44mn 41s
Bit rate mode : Constant
Bit rate : 192 Kbps
Channel(s) : 2 channels
Channel positions : Front: L R
Sampling rate : 48.0 KHz
Frame rate : 31.250 fps (1536 spf)
Compression mode : Lossy
Stream size : 61.4 MiB (2%)
Default : Yes
Forced : Yes

Audio #2
ID : 3
Format : AC-3
Format/Info : Audio Coding 3
Mode extension : CM (complete main)
Format settings, Endianness : Big
Codec ID : A_AC3
Duration : 44mn 43s
Bit rate mode : Constant
Bit rate : 192 Kbps
Channel(s) : 2 channels
Channel positions : Front: L R
Sampling rate : 48.0 KHz
Frame rate : 31.250 fps (1536 spf)
Compression mode : Lossy
Stream size : 61.4 MiB (2%)
Default : No
Forced : No
4. 8 серия. Английская дорожка 2-канальная, битрейт не соответствует описанию + отсутствие русских и английских субтитров.
General
Unique ID : 215382607106027886278041081090185389345 (0xA2092E6691803CFFAA050902BAD46521)
Complete name : D:\TORRENT\The Grand Tour S01 FullHD Jetvis Studio\The.Grand.Tour.s01e08.WEBRip.1080p.Jetvis Studio.RG.Paravozik.mkv
Format : Matroska
Format version : Version 4 / Version 2
File size : 5.05 GiB
Duration : 59mn 2s
Overall bit rate : 12.2 Mbps
Encoded date : UTC 2017-01-02 20:01:03
Writing application : mkvmerge v9.4.2 ('So High') 64bit
Writing library : libebml v1.3.4 + libmatroska v1.4.5

Video
ID : 1
Format : AVC
Format/Info : Advanced Video Codec
Format profile : High@L4.1
Format settings, CABAC : Yes
Format settings, ReFrames : 3 frames
Codec ID : V_MPEG4/ISO/AVC
Duration : 59mn 2s
Bit rate : 12.0 Mbps
Width : 1 920 pixels
Height : 1 080 pixels
Display aspect ratio : 16:9
Frame rate mode : Constant
Frame rate : 23.976 (24000/1001) fps
Color space : YUV
Chroma subsampling : 4:2:0
Bit depth : 8 bits
Scan type : Progressive
Bits/(Pixel*Frame) : 0.241
Stream size : 4.89 GiB (97%)
Writing library : x264 core 116 r2019M 9cc407d
Encoding settings : cabac=1 / ref=3 / deblock=1:0:0 / analyse=0x3:0x133 / me=hex / subme=7 / psy=1 / psy_rd=1.00:0.20 / mixed_ref=1 / me_range=16 / chroma_me=1 / trellis=1 / 8x8dct=1 / cqm=0 / deadzone=21,11 / fast_pskip=1 / chroma_qp_offset=-3 / threads=12 / sliced_threads=0 / nr=0 / decimate=1 / interlaced=0 / bluray_compat=0 / constrained_intra=0 / bframes=3 / b_pyramid=1 / b_adapt=2 / b_bias=0 / direct=3 / weightb=1 / open_gop=0 / weightp=2 / keyint=230 / keyint_min=23 / scenecut=40 / intra_refresh=0 / rc_lookahead=40 / rc=abr / mbtree=1 / bitrate=12000 / ratetol=1.0 / qcomp=0.60 / qpmin=10 / qpmax=51 / qpstep=4 / ip_ratio=1.40 / aq=1:1.00
Default : Yes
Forced : No

Audio #1
ID : 2
Format : AC-3
Format/Info : Audio Coding 3
Mode extension : CM (complete main)
Format settings, Endianness : Big
Codec ID : A_AC3
Duration : 59mn 2s
Bit rate mode : Constant
Bit rate : 192 Kbps
Channel(s) : 2 channels
Channel positions : Front: L R
Sampling rate : 48.0 KHz
Frame rate : 31.250 fps (1536 spf)
Compression mode : Lossy
Stream size : 81.1 MiB (2%)
Default : Yes
Forced : Yes

Audio #2
ID : 3
Format : AC-3
Format/Info : Audio Coding 3
Mode extension : CM (complete main)
Format settings, Endianness : Big
Codec ID : A_AC3
Duration : 59mn 2s
Bit rate mode : Constant
Bit rate : 192 Kbps
Channel(s) : 2 channels
Channel positions : Front: L R
Sampling rate : 48.0 KHz
Frame rate : 31.250 fps (1536 spf)
Compression mode : Lossy
Stream size : 81.1 MiB (2%)
Default : No
Forced : No
Самое время исправить содержимое раздачи и описание, уважаемый.
info [Профиль]  [ЛС] 

DanteXXI

Пол: Пол:Муж

Стаж: 7 лет 9 месяцев

Сообщений: 4

Россия
Рейтинг

post 04-Янв-2017 19:27 (спустя 9 часов) [-]0[+]

[Цитировать] 

Английская дорога не помешает, смотрю только с субтитрами. Надеюсь что прикрутите. В целом спасибо за качество.
info [Профиль]  [ЛС] 

Fire Ball

Стаж: 4 года 4 месяца

Сообщений: 738

Предупреждений: 3

Рейтинг

post 04-Янв-2017 20:44 (спустя 1 час 16 минут) [-]0[+]

[Цитировать] 

Persin писал(а):

о боги это просто убер крутой спец выпуск 7 и 8 серия
Ну не Яндекс.Такси же! kolob_118

_________________
info [Профиль]  [ЛС] 

D2

Пол: Пол:Муж

Стаж: 5 лет 3 месяца

Сообщений: 413

Россия
Рейтинг

post 05-Янв-2017 13:18 (спустя 16 часов) [-]2[+]

[Цитировать] 

Обновил из-за претензий к раздачи.
k3k0, теперь можете каждую серию проверить и убедиться в её соответствии описанию.

Извините за неудобство.

_________________
info [Профиль]  [ЛС] 

Дмитрий1964

Пол: Пол:Муж

Стаж: 6 лет 3 месяца

Сообщений: 18

Норвегия
Рейтинг

post 05-Янв-2017 23:48 (спустя 10 часов) [-]0[+]

[Цитировать] 

Я скачал торрент GT с 1 по 5 серии, который весит 8.65 гб. В чём причина такого увеличения размера файла? Спасибо.
info [Профиль]  [ЛС] 

foxirk

Пол: Пол:Муж

Стаж: 6 лет 3 месяца

Сообщений: 184

Россия
Рейтинг

post 07-Янв-2017 13:21 (спустя 1 день 13 часов) [-]0[+]

[Цитировать] 

люди... а куда делся вариант с НОРМАЛЬНОЙ озвучкой.... ну что это за ОТСТОЙ ((.... кларксон должен быть грубым голосом... Мэй.... должен комический английский...
Jasker или как то...рядом был... родной перевод..... ну этот серый толерастичный войс - режет ухо ((
info [Профиль]  [ЛС] 

D2

Пол: Пол:Муж

Стаж: 5 лет 3 месяца

Сообщений: 413

Россия
Рейтинг

post 08-Янв-2017 16:15 (спустя 1 день 2 часа) [-]1[+]

[Цитировать] 

Раздача обновлена.
Добавлена 9-я серия.

_________________
info [Профиль]  [ЛС] 

D2

Пол: Пол:Муж

Стаж: 5 лет 3 месяца

Сообщений: 413

Россия
Рейтинг

post 16-Янв-2017 02:56 (спустя 7 дней) [-]2[+]

[Цитировать] 

Раздача обновлена.
Добавлена 10-я серия.

_________________
info [Профиль]  [ЛС] 
Показать сообщения:    
Ответить на тему

Текущее время: 22-Фев 05:34

Часовой пояс: GMT + 4



Вы не можете начинать темы
Вы не можете отвечать на сообщения
Вы не можете редактировать свои сообщения
Вы не можете удалять свои сообщения
Вы не можете голосовать в опросах
Вы не можете прикреплять файлы к сообщениям
Вы не можете скачивать файлы