Ошибка

Спецагент Арчер / Archer / Сезон: 7 / Серии: 1-10 из 10 (Адам Рид, Брайан Фордни) [2016, США, мультфильм, боевик, комедия, WEB-DL 1080p] MVO (Кубик в Кубе & Бяко Рекордс) + Original + Sub (Rus, Eng)

Ответить на тему
 
Автор Сообщение

Kapolone

Пол: Пол:Муж

Стаж: 3 года 10 месяцев

Сообщений: 112

Канада
Рейтинг

post 28-Ноя-2016 23:45 2[+]

[Цитировать] 


pic="http://i1.imageban.ru/out/2016/11/28/0bceb624945569ec77693fb02bb42e4d.jpg"
Оригинальное название: Archer
Год выпуска: 2016
Страна: США
Жанр: мультфильм, боевик, комедия
Серия: Серии 1-10 из 10
Сезон: 7
Продолжительность: ~00:22:00
Перевод: Профессиональный (многоголосый закадровый) [Кубик в Кубе & Бяко Рекордс]
Субтитры: Russian, English
Режиссер: Адам Рид, Брайан Фордни
В ролях: Х. Джон Бенжамин (Стерлинг Мэлори Арчер), Аиша Тайлер (Лана Кейн), Крис Парнелл (Сирил Фиггис), Джессика Уолтер (Мэлори Арчер), Эмбер Нэш (Пэм), Джуди Грир (Шерил Тант), Адам Рид (Рей Жиллет), Лаки Йэтс (Кригер), Дэйв Уиллис (Барри Диллон), Мэри МаДональд-Льюис (Вероника Дин), Пэттон Освальт (Алан Шапиро)
Описание:
В международном шпионском агенстве ISIS любой мировой кризис — лишь предлог для высококлассных секретных агентов посоревноваться между собой в обмане и предательстве. Главным героем мультсериала является спецагент Стерлинг Арчер, известный также под кодовым именем «Герцогиня». На службе Арчеру приходится мириться со своей эксцентричной мамашей/начальницей — Мэлори, бывшей подружкой Ланой, озабоченной секретаршей Шерил и другими «интересными личностями»

Качество: WEB-DL 1080p
Формат: MKV
Данные видео: 1920x1080 (16:9), H.264, ~4 800 Kbps, 23.976 fps
Аудио 1: AC3, 48.0 KHz, 6 ch, 384 kbps RUS
Аудио 2: AC3, 48.0 KHz, 6 ch, 384 kbps ENG

Код:

General
Unique ID                                : 242110800033760807718389618118564443761 (0xB624D80E0DFDDBBFB6354B0177EEF671)
Complete name                            :Archer.S07.WEB-DL.1080p/Archer.S07E05.WEB-DL.1080p.mkv
Format                                   : Matroska
Format version                           : Version 4 / Version 2
File size                                : 899 MiB
Duration                                 : 21mn 36s
Overall bit rate                         : 5 815 Kbps
Encoded date                             : UTC 2016-08-25 04:05:45
Writing application                      : mkvmerge v9.4.0 ('Knurl') 64bit
Writing library                          : libebml v1.3.4 + libmatroska v1.4.5

Video
ID                                       : 1
Format                                   : AVC
Format/Info                              : Advanced Video Codec
Format profile                           : High@L4.0
Format settings, CABAC                   : Yes
Format settings, ReFrames                : 4 frames
Codec ID                                 : V_MPEG4/ISO/AVC
Duration                                 : 21mn 36s
Bit rate                                 : 4 931 Kbps
Width                                    : 1 920 pixels
Height                                   : 1 080 pixels
Display aspect ratio                     : 16:9
Frame rate mode                          : Constant
Frame rate                               : 23.976 fps
Color space                              : YUV
Chroma subsampling                       : 4:2:0
Bit depth                                : 8 bits
Scan type                                : Progressive
Bits/(Pixel*Frame)                       : 0.099
Stream size                              : 762 MiB (85%)
Language                                 : English
Default                                  : Yes
Forced                                   : No
Color primaries                          : BT.709
Transfer characteristics                 : BT.709
Matrix coefficients                      : BT.709

Audio #1
ID                                       : 2
Format                                   : AC-3
Format/Info                              : Audio Coding 3
Mode extension                           : CM (complete main)
Format settings, Endianness              : Big
Codec ID                                 : A_AC3
Duration                                 : 21mn 36s
Bit rate mode                            : Constant
Bit rate                                 : 384 Kbps
Channel(s)                               : 6 channels
Channel positions                        : Front: L C R, Side: L R, LFE
Sampling rate                            : 48.0 KHz
Bit depth                                : 16 bits
Compression mode                         : Lossy
Stream size                              : 59.3 MiB (7%)
Language                                 : Russian
Default                                  : Yes
Forced                                   : No

Audio #2
ID                                       : 3
Format                                   : AC-3
Format/Info                              : Audio Coding 3
Mode extension                           : CM (complete main)
Format settings, Endianness              : Big
Codec ID                                 : A_AC3
Duration                                 : 21mn 36s
Bit rate mode                            : Constant
Bit rate                                 : 384 Kbps
Channel(s)                               : 6 channels
Channel positions                        : Front: L C R, Side: L R, LFE
Sampling rate                            : 48.0 KHz
Bit depth                                : 16 bits
Compression mode                         : Lossy
Stream size                              : 59.3 MiB (7%)
Language                                 : English
Default                                  : No
Forced                                   : No

Text #1
ID                                       : 4
Format                                   : UTF-8
Codec ID                                 : S_TEXT/UTF8
Codec ID/Info                            : UTF-8 Plain Text
Language                                 : Russian
Default                                  : No
Forced                                   : No

Text #2
ID                                       : 5
Format                                   : UTF-8
Codec ID                                 : S_TEXT/UTF8
Codec ID/Info                            : UTF-8 Plain Text
Language                                 : English
Default                                  : No
Forced                                   : No
          
info [Профиль]  [ЛС] 

ЭльБарто

Пол: Пол:Муж

Стаж: 6 лет 8 месяцев

Сообщений: 23

Россия
Рейтинг

post 29-Ноя-2016 14:01 (спустя 14 часов) [-]-10[+]

[Цитировать] 

-Господи, люди, читайте книги!
info [Профиль]  [ЛС] 

AlexZv1976

Пол: Пол:Муж

Стаж: 3 года 9 месяцев

Сообщений: 41

Украина
Рейтинг

post 29-Ноя-2016 14:29 (спустя 28 минут) [-]9[+]

[Цитировать] 

ЭльБарто писал(а):

-Господи, люди, читайте книги!
Прикинь, дружище, а некоторые и книги читают, и с удовольствием мультсериалы просматривают, и Арчера, и Рика и Морти, и т.д. Улыбаюсь
Не суди, да не судим будешь!
info [Профиль]  [ЛС] 
Показать сообщения:    
Ответить на тему

Текущее время: 03-Дек 13:36

Часовой пояс: GMT + 4



Вы не можете начинать темы
Вы не можете отвечать на сообщения
Вы не можете редактировать свои сообщения
Вы не можете удалять свои сообщения
Вы не можете голосовать в опросах
Вы не можете прикреплять файлы к сообщениям
Вы не можете скачивать файлы