Ошибка

До окончания фрилича осталось:


Украина в огне / Ukraine on Fire / (Игорь Лопатенок) / (Оливер Стоун) [2016, документальное кино, HDTVRip, 1080p] [Рен ТВ]

Тема закрыта
 
Автор Сообщение

powder go away

Пол: Пол:Муж

Стаж: 1 год 7 месяцев

Сообщений: 130

Россия
Рейтинг

post 22-Ноя-2016 08:53 24[+]

[Цитировать] 

Украина в огне | Ukraine on Fire


pic="http://i84.fastpic.ru/big/2016/1122/12/4a1d2d7aadf33fa25532797a47810612.png"
Год выпуска: 2016
  • премьера (мир) 16 июня 2016
  • премьера (РФ) 21 ноября 2016
Страна: США
Жанр: документальное кино
Продолжительность: 01:35:46
Перевод: Профессиональный (двухголосый закадровый) [Рен ТВ]
Режиссер:
Продюсер:


Описание: Документальный фильм американского кинорежиссера Оливера Стоуна «Украина в огне» расскажет об истории Украины в период с 1941 по 2014 год. Зритель увидит материалы о националистических движениях, которые существовали во времена Второй мировой войны и участвовали вместе с нацистами в массовых убийствах евреев и поляков, затем поддерживались ЦРУ во времена «холодной войны», а затем повлияли на мирные манифестации последних лет. Показаны материалы, снятые на киевском Майдане в феврале 2014 года, когда на Украине произошел госпереворот...

Что на самом деле произошло на Украине? И как страна пришла к революции? Оливер Стоун расскажет всё о становлении национализма на Украине и о помощи ЦРУ в его пропаганде. Государственный переворот и вооружённый конфликт в режиме реального времени. США выделили огромные средства, чтобы «помочь Украине со всеми задачами» – достаточно ли этого, чтобы считать революцию «заказной»? Кто поставил задачу расстрелять президента Януковича? К какой миссии США готовили Саакашвили? И как Россию превратили во врага Украины №1? А также интервью президента России Владимира Путина и бывшего президента Украины Виктора Януковича, которые Оливер Стоун взял у политиков лично.



Качество: HDTVRip 1920x1080p,
Формат: MKV
Видео кодек: V_MPEG4/ISO/AVC
Аудио кодек: AC-3
Видео: Advanced Video Codec (V_MPEG4/ISO/AVC), 1920x1080p, 25 кадров/сек, 4500 Кбит/сек
Аудио: Russian: Audio Coding 3 (A_AC3), 320 Кбит/сек, 2 канала, 48,0 КГц

Код:

Общее
Уникальный идентификатор                 : 179778525898225630282625098659551267026 (0x874015AADEB6A07211F6733D130848D2)
Формат                                   : Matroska
Версия формата                           : Version 4 / Version 2
Размер файла                             : 3,18 Гбайт
Продолжительность                        : 1 ч. 35 м.
Общий поток                              : 4755 Кбит/сек
Программа кодирования                    : Lavf56.40.101
Библиотека кодирования                   : Lavf56.40.101 / Lavf56.40.101

Видео
Идентификатор                            : 1
Формат                                   : AVC
Формат/Информация                        : Advanced Video Codec
Профиль формата                          : Baseline@L4
Параметр CABAC формата                   : Нет
Параметр ReFrames формата                : 1 кадр
Идентификатор кодека                     : V_MPEG4/ISO/AVC
Продолжительность                        : 1 ч. 35 м.
Битрейт                                  : 4500 Кбит/сек
Ширина                                   : 1920 пикселей
Высота                                   : 1080 пикселей
Соотношение сторон                       : 16:9
Режим частоты кадров                     : Постоянный
Частота кадров                           : 25,000 кадров/сек
Цветовое пространство                    : YUV
Субдискретизация насыщенности            : 4:2:0
Битовая глубина                          : 8 бит
Тип развёртки                            : Прогрессивная
Бит/(Пиксели*Кадры)                      : 0.087
Размер потока                            : 2,95 Гбайт (93%)
Библиотека кодирования                   : x264 core 148 r2643 5c65704
Настройки программы                      : cabac=0 / ref=1 / deblock=1:0:0 / analyse=0x1:0x111 / me=hex / subme=7 / psy=1 / psy_rd=1.00:0.00 / mixed_ref=0 / me_range=16 / chroma_me=1 / trellis=1 / 8x8dct=0 / cqm=0 / deadzone=21,11 / fast_pskip=1 / chroma_qp_offset=-2 / threads=6 / lookahead_threads=1 / sliced_threads=0 / nr=0 / decimate=1 / interlaced=0 / bluray_compat=0 / constrained_intra=0 / bframes=0 / weightp=0 / keyint=250 / keyint_min=25 / scenecut=40 / intra_refresh=0 / rc_lookahead=40 / rc=abr / mbtree=1 / bitrate=4500 / ratetol=1.0 / qcomp=0.60 / qpmin=10 / qpmax=51 / qpstep=4 / ip_ratio=1.41 / aq=1:1.00
Default                                  : Да
Forced                                   : Нет
DURATION                                 : 01:35:46.645000000

Аудио
Идентификатор                            : 2
Формат                                   : AC-3
Формат/Информация                        : Audio Coding 3
Расширение режима                        : CM (complete main)
Параметр Endianness формата              : Big
Идентификатор кодека                     : A_AC3
Продолжительность                        : 1 ч. 35 м.
Вид битрейта                             : Постоянный
Битрейт                                  : 256 Кбит/сек
Каналы                                   : 2 канала
Расположение каналов                     : Front: L R
Частота                                  : 48,0 КГц
Частота кадров                           : 31,250 кадров/сек (1536 spf)
Битовая глубина                          : 32 бит
Метод сжатия                             : С потерями
Задержка видео                           : -5 мс.
Размер потока                            : 175 Мбайт (5%)
Библиотека кодирования                   : Lavc56.60.100 ac3
Default                                  : Да
Forced                                   : Нет
DURATION                                 : 01:35:46.688000000
info [Профиль]  [ЛС] 
Показать сообщения:    
Тема закрыта

Текущее время: 10-Дек 07:11

Часовой пояс: GMT + 4



Вы не можете начинать темы
Вы не можете отвечать на сообщения
Вы не можете редактировать свои сообщения
Вы не можете удалять свои сообщения
Вы не можете голосовать в опросах
Вы не можете прикреплять файлы к сообщениям
Вы не можете скачивать файлы