Ошибка

Гранд Тур / The Grand Tour / Сезон 1 / Серии 1-2 (12) [2016 г., Автопередача, HDTVRip 720p] MVO (Jetvis Studio)

Ответить на тему
 
Автор Сообщение

CooL

Пол: Пол:Муж

Стаж: 6 лет 8 месяцев

Сообщений: 1235

СССР
Рейтинг

post 20-Ноя-2016 00:50 11[+]

[Цитировать] 


Гранд Тур / The Grand Tour
1 сезон

Год выхода: 2016
Страна: США
Жанр: Автопередача
Продолжительность: ~ 60 мин
Перевод: Многоголосый закадровый [Jetvis Studio]
Сезон: 1
Серии: 1-2
Ведущие: Джереми Кларксон, Ричард Хаммонд и Джеймс Мэй
Описание: После ухода из Top Gear весной 2015 года Джереми Кларксон, Ричард Хаммонд и Джеймс Мэй решили вместе с Энди Уилманом создать новое шоу. Так, в конце июля они заключили контракт с платформой Amazon, осенью прошлого года они создали свою компанию W. Chump and Sons и начали снимать 12 выпусков первого сезона автошоу The Grand Tour. Концепция передачи отлично отражает её название: каждый выпуск будет снят в различных городах или странах мира, а студией теперь служит большая палатка. Зрителям предстанут разнообразные путешествия и испытания. Но и различные тесты автомобилей по-прежнему будут присутствовать, а заодно и искрометный юмор ведущих.
Качество: HDTVRip 720p
Формат: MKV
Видео кодек: x264
Аудио кодек: AC3
Видео: H.264, 1280x720 (16:9), 25.000 fps, ~3500 kbps, ~0.154 bit/pixel
Аудио Eng: 48 kHz, AC3, 2 ch, ~192.00 kbps avg
Аудио RUS: 48 kHz, AC3, 2 ch, ~192.00 kbps avg
Реклама: Присутствует звуковая (два раза в начале и конце по 12 сек.)
Формат : Matroska
Версия формата : Version 4 / Version 2
Размер файла : 1,94 Гбайт
Продолжительность : 1 ч. 11 м.
Общий поток : 3883 Кбит/сек
Дата кодирования : UTC 2016-11-19 19:45:28
Программа кодирования : mkvmerge v9.4.2 ('So High') 64bit
Библиотека кодирования : libebml v1.3.4 + libmatroska v1.4.5
DURATION : 01:11:36.960000000
NUMBER_OF_FRAMES : 134280
NUMBER_OF_BYTES : 103127040
_STATISTICS_WRITING_APP : mkvmerge v9.4.2 ('So High') 64bit
_STATISTICS_WRITING_DATE_UTC : 2016-11-19 19:45:28
_STATISTICS_TAGS : BPS DURATION NUMBER_OF_FRAMES NUMBER_OF_BYTES

Видео
Идентификатор : 1
Формат : AVC
Формат/Информация : Advanced Video Codec
Профиль формата : High@L4.1
Параметр CABAC формата : Да
Параметр ReFrames формата : 3 кадра
Идентификатор кодека : V_MPEG4/ISO/AVC
Продолжительность : 1 ч. 11 м.
Битрейт : 3500 Кбит/сек
Ширина : 1280 пикселей
Высота : 720 пикселей
Соотношение сторон : 16:9
Режим частоты кадров : Постоянный
Частота кадров : 23,976 кадра/сек
Цветовое пространство : YUV
Субдискретизация насыщенности : 4:2:0
Битовая глубина : 8 бит
Тип развёртки : Прогрессивная
Бит/(Пиксели*Кадры) : 0.158
Размер потока : 1,71 Гбайт (88%)
Библиотека кодирования : x264 core 116 r2019M 9cc407d
Настройки программы : cabac=1 / ref=3 / deblock=1:0:0 / analyse=0x3:0x133 / me=hex / subme=7 / psy=1 / psy_rd=1.00:0.20 / mixed_ref=1 / me_range=16 / chroma_me=1 / trellis=1 / 8x8dct=1 / cqm=0 / deadzone=21,11 / fast_pskip=1 / chroma_qp_offset=-3 / threads=12 / sliced_threads=0 / nr=0 / decimate=1 / interlaced=0 / bluray_compat=0 / constrained_intra=0 / bframes=3 / b_pyramid=1 / b_adapt=2 / b_bias=0 / direct=3 / weightb=1 / open_gop=0 / weightp=2 / keyint=230 / keyint_min=23 / scenecut=40 / intra_refresh=0 / rc_lookahead=40 / rc=abr / mbtree=1 / bitrate=3500 / ratetol=1.0 / qcomp=0.60 / qpmin=10 / qpmax=51 / qpstep=4 / ip_ratio=1.40 / aq=1:1.00
Язык : English
Default : Да
Forced : Нет
DURATION : 01:11:36.960000000
NUMBER_OF_FRAMES : 134280
NUMBER_OF_BYTES : 103127040
_STATISTICS_WRITING_APP : mkvmerge v9.4.2 ('So High') 64bit
_STATISTICS_WRITING_DATE_UTC : 2016-11-19 19:45:28
_STATISTICS_TAGS : BPS DURATION NUMBER_OF_FRAMES NUMBER_OF_BYTES

Аудио #1
Идентификатор : 2
Формат : AC-3
Формат/Информация : Audio Coding 3
Расширение режима : CM (complete main)
Параметр Endianness формата : Big
Идентификатор кодека : A_AC3
Продолжительность : 1 ч. 11 м.
Вид битрейта : Постоянный
Битрейт : 192 Кбит/сек
Каналы : 2 канала
Расположение каналов : Front: L R
Частота : 48,0 КГц
Битовая глубина : 16 бит
Метод сжатия : С потерями
Размер потока : 98,3 Мбайт (5%)
Язык : Russian
Default : Да
Forced : Да
DURATION : 01:11:36.470000000
NUMBER_OF_FRAMES : 103009
NUMBER_OF_BYTES : 1878536039
_STATISTICS_WRITING_APP : mkvmerge v9.4.2 ('So High') 64bit
_STATISTICS_WRITING_DATE_UTC : 2016-11-19 19:45:28
_STATISTICS_TAGS : BPS DURATION NUMBER_OF_FRAMES NUMBER_OF_BYTES

Аудио #2
Идентификатор : 3
Формат : AC-3
Формат/Информация : Audio Coding 3
Расширение режима : CM (complete main)
Параметр Endianness формата : Big
Идентификатор кодека : A_AC3
Продолжительность : 1 ч. 11 м.
Вид битрейта : Постоянный
Битрейт : 192 Кбит/сек
Каналы : 2 канала
Расположение каналов : Front: L R
Частота : 48,0 КГц
Битовая глубина : 16 бит
Метод сжатия : С потерями
Размер потока : 98,3 Мбайт (5%)
Язык : English
Default : Нет
Forced : Нет


info [Профиль]  [ЛС] 

TePPoPucT

Пол: Пол:Муж

Стаж: 4 года 2 месяца

Сообщений: 77

Россия
Рейтинг

post 20-Ноя-2016 05:01 (спустя 4 часа) [-]10[+]

[Цитировать] 

Наконец то!!! Они вернулись)))
info [Профиль]  [ЛС] 

Mailys442

Пол: Пол:Муж

Стаж: 6 лет 5 месяцев

Сообщений: 40

Рейтинг

post 20-Ноя-2016 09:36 (спустя 4 часа) [-]0[+]

[Цитировать] 

ДА! ДА! ДА!!!!
Наконец!
Но подожду полного сезона, не смогу между сериями вытерпеть.

_________________
Не зарекайся..
info [Профиль]  [ЛС] 

egorikSTAIL

Стаж: 7 лет 3 месяца

Сообщений: 226

Рейтинг

post 20-Ноя-2016 11:21 (спустя 1 час 44 минуты) [-]0[+]

[Цитировать] 

С возвращением ребята!!!
info [Профиль]  [ЛС] 

RaMoNiX

Пол: Пол:Муж

Стаж: 7 лет 8 месяцев

Сообщений: 72

Россия
Рейтинг

post 20-Ноя-2016 12:23 (спустя 1 час 2 минуты) [-]0[+]

[Цитировать] 

Ураааааааа! Полтора года ожидания, наконец, закончились) Автору спасибо за раздачу!

_________________
info [Профиль]  [ЛС] 

Ferrumscow

Пол: Пол:Муж

Стаж: 6 лет 2 месяца

Сообщений: 39

Россия
Рейтинг

post 20-Ноя-2016 12:53 (спустя 29 минут) [-]1[+]

[Цитировать] 

От души, душевно, в душу.
info [Профиль]  [ЛС] 

GT

Пол: Пол:Муж

Стаж: 5 лет 5 месяцев

Сообщений: 512

Россия
Рейтинг

post 20-Ноя-2016 15:09 (спустя 2 часа 16 минут) [-]0[+]

[Цитировать] 

Класс! Дождались kolob_118

_________________
FX8150 4GHz, 16Gb DDR3, GTX560Ti, Arch x64 (Main)
Q83000 3GHz, 8Gb DDR2, 8800GT, Debian Jessie x64 + Win7 x64 (Oldschool)
Dual Core E5200, 2.5GHz, 2Gb DDR, GF7600GS, WinXP x32 (True oldschool)
info [Профиль]  [ЛС] 

Leliil

Пол: Пол:Муж

Стаж: 5 лет 3 месяца

Сообщений: 832

Россия
Рейтинг

post 21-Ноя-2016 05:25 (спустя 14 часов) [-]0[+]

[Цитировать] 

сэмпла не будет?

_________________
info [Профиль]  [ЛС] 

D2

Пол: Пол:Муж

Стаж: 5 лет

Сообщений: 375

Россия
Рейтинг

post 21-Ноя-2016 22:17 (спустя 16 часов) [-]0[+]

[Цитировать] 

Привет.

Спасибо за раздачу! Овации? Не в обиду Подмигиваю. Если можешь оформи раздачу чуть красивее, пафоснее)). Надеюсь у тебя просто времени не хватило...

_________________
info [Профиль]  [ЛС] 

CooL

Пол: Пол:Муж

Стаж: 6 лет 8 месяцев

Сообщений: 1235

СССР
Рейтинг

post 29-Ноя-2016 00:57 (спустя 7 дней) [-]1[+]

[Цитировать] 

Добавлена 2 серия !
info [Профиль]  [ЛС] 

Cugar

Пол: Пол:Муж

Стаж: 7 лет 1 месяц

Сообщений: 287

Россия
Рейтинг

post 30-Ноя-2016 12:09 (спустя 1 день 11 часов) [-]0[+]

[Цитировать] 

Наверное, наивно, но очень сильно надеюсь, что они умудрились сделать новое шоу лучше старого. Посмотрим, что получилось.

_________________
Побеждает не большой и бивнями украшенный,
а маленький, злой и безбашенный!
info [Профиль]  [ЛС] 
Показать сообщения:    
Ответить на тему

Текущее время: 03-Дек 13:38

Часовой пояс: GMT + 4



Вы не можете начинать темы
Вы не можете отвечать на сообщения
Вы не можете редактировать свои сообщения
Вы не можете удалять свои сообщения
Вы не можете голосовать в опросах
Вы не можете прикреплять файлы к сообщениям
Вы не можете скачивать файлы