Ошибка

До окончания фрилича осталось:


LEGO Friends: Лучшие подружки / LEGO Friends: Girlz 4 Life (Даррен Кэмпбелл, Кристиан Чешир) [2016, мультфильм, семейный, BDRip]

Ответить на тему
 
Автор Сообщение

N

Пол: Пол:Муж

Стаж: 4 года 11 месяцев

Сообщений: 216

Россия
Рейтинг

post 18-Ноя-2016 00:23 0[+]

[Цитировать] 

LEGO Friends: Лучшие подружки

LEGO Friends: Girlz 4 Life


Страна: США
Год выпуска: 2016
Жанр: мультфильм, семейный
Продолжительность: 01:19:43
Перевод: Профессиональный (многоголосый, закадровый)
Cубтитры: отсутствуют
Режиссёр: Даррен Кэмпбелл / Darren Campbell, Кристиан Чешир / Christian Cheshire

Роли озвучивали: Эрика Мендез, Кристина Валенсуела, Эмили Альбрехт, Милли О'Коннор, Марианна Миллер, Рэйчел Хэгер, Алекса Кан
Описание:
Красочный полнометражный мультфильм по мотивам популярного мультсериала LEGO «Подружки из Хартлейк Сити». «LEGO Friends: Лучшие подружки» – история приключений пяти очень разных, но очень дружных девочек, живущих в лего-городке. У каждой из них есть свое увлечение: Миа, например, обожает животных. Эмма - самая спортивная. Оливия – настоящий изобретатель. Андреа - танцует и поет. A Стефани же – трудолюбивая девушка, умеющая и любящая готовить. Объединяет их не только крепкая дружба, но и общее дело – у девочек есть своя музыкальная группа. Однажды подруги узнают, что в Хартлейк Сити с концертом приезжает их любимая певица Ливи, и решают во что что бы то ни стало познакомиться с ней и показать звезде свои песни. Что ж, для этих девчонок нет ничего невозможного, несмотря на то, что у них есть серьезные конкуренты.

Качество: BDRip
Формат: AVI
Видео: XviD, 640x360 (1.78:1), 23.976 fps, ~1170 kbps avg, 0.21 bit/pixel
Аудио: MPEG Layer 3,48 kHz, 2 ch, ~128.00 kbps avg

Код:

General
      Complete name : C:\LEGO_Friends_Girlz.avi
      Format : AVI
      Format/Info : Audio Video Interleave
      File size : 746 MiB
      Duration : 1h 19mn
      Overall bit rate : 1 308 Kbps
      Movie name : LEGO Friends: Girlz 4 Life [ripped by domin8]
      Genre : Child's
      Writing application : VirtualDubMod 1.5.10.3 | www.virtualdub-fr.org || (build 2550/release)
      Original source form/Name : Cartoon
   Video #0
      ID : 0
      Format : MPEG-4 Visual
      Format profile : Advanced Simple@L5
      Format settings, BVOP : Yes
      Format settings, QPel : No
      Format settings, GMC : No warppoints
      Format settings, Matrix : Default (H.263)
      Codec ID : XVID
      Codec ID/Hint : XviD
      Duration : 1h 19mn
      Bit rate : 1 171 Kbps
      Width : 640 pixels
      Height : 360 pixels
      Display aspect ratio : 16:9
      Frame rate : 23.976 fps
      Color space : YUV
      Chroma subsampling : 4:2:0
      Bit depth : 8 bits
      Scan type : Progressive
      Bits/(Pixel*Frame) : 0.212
      Stream size : 668 MiB (90%)
      Writing library : XviD 73
   Audio #1
      ID : 1
      Format : MPEG Audio
      Format version : Version 1
      Format profile : Layer 3
      Mode : Joint stereo
      Mode extension : MS Stereo
      Codec ID : 55
      Codec ID/Hint : MP3
      Duration : 1h 19mn
      Bit rate mode : Constant
      Bit rate : 128 Kbps
      Channel(s) : 2 channels
      Sampling rate : 48.0 KHz
      Stream size : 73.0 MiB (10%)
      Alignment : Aligned on interleaves
      Interleave, duration : 42 ms (1.00 video frame)
      Interleave, preload duration : 504 ms
      Title : rus
      Writing library : LAME3.99r
      Encoding settings : -m j -V 4 -q 0 -lowpass 17 -b 128
info [Профиль]  [ЛС] 

OlegLaim

Пол: Пол:Муж

Стаж: 2 года 6 месяцев

Сообщений: 3

СССР
Рейтинг

post 18-Ноя-2016 18:09 (спустя 17 часов) [-]-1[+]

[Цитировать] 

Это кто-то смотрит? kolob_121
info [Профиль]  [ЛС] 

vitt0_b

Пол: Пол:Муж

Стаж: 5 лет 3 месяца

Сообщений: 41

Россия
Рейтинг

post 18-Ноя-2016 20:54 (спустя 2 часа 45 минут) [-]2[+]

[Цитировать] 

OlegLaim девочки 4-8 лет.

_________________
info [Профиль]  [ЛС] 
Показать сообщения:    
Ответить на тему

Текущее время: 10-Дек 03:22

Часовой пояс: GMT + 4



Вы не можете начинать темы
Вы не можете отвечать на сообщения
Вы не можете редактировать свои сообщения
Вы не можете удалять свои сообщения
Вы не можете голосовать в опросах
Вы не можете прикреплять файлы к сообщениям
Вы не можете скачивать файлы