Ошибка

До окончания фрилича осталось:


Человек дождя / Rain Man (Барри Левинсон / Barry Levinson) [1988 г., драма, HDRip] Dub

Ответить на тему
 
Автор Сообщение

apx1med

Пол: Пол:Муж

Стаж: 6 лет 9 месяцев

Сообщений: 651

СССР
Рейтинг

post 17-Ноя-2016 00:14 0[+]

[Цитировать] 

Человек дождя / Rain Man
«A journey through understanding and fellowship»

Год выпуска: 1988
Страна: США
Жанр: драма
Продолжительность: 02:13:50
Перевод: Профессиональный (полное дублирование)
Режиссер: Барри Левинсон / Barry Levinson
В ролях: Дастин Хоффман, Том Круз, Валерия Голино, Джералд Р. Молен, Джек Мёрдок, Майкл Д. Робертс, Ральф Сеймур, Люсинда Дженни, Бонни Хант, Ким Робиллард

Описание:
У Чарли, грубоватого и эгоистичного молодого повесы, в наследство от отца остались лишь розовые кусты да «Бьюик» 49-го года. Внезапным «сюрпризом» для него стало открытие того, что львиная доля наследства оставлена отцом его больному аутизмом брату Раймонду.

Задавшись целью отобрать свою «справедливую долю» семейного достояния, Чарли похищает старшего брата и держит его заложником. Но то, что было задумано им из эгоизма, перерастает в волшебную одиссею дружбы и самоосмысления, которая разводит границы обособленного мира Раймонда, а Чарли позволяет вырваться из оков своей некогда бесчувственной души.
Качество: HDRip
Формат: AVI
Видео кодек: XviD
Аудио кодек: АС3
Видео: Xvid, 720x384, 23.98fps, 1362Kbps
Аудио: Dolby AC3, 48000Hz, stereo, 192kbps


Код:

Видео
Идентификатор                            : 0
Формат                                   : MPEG-4 Visual
Профиль формата                          : Advanced Simple@L5
Параметр BVOP формата                    : 2
Параметр QPel формата                    : Нет
Параметр GMC формата                     : Без точки перехода
Параметр матрицы формата                 : Выборочная
Идентификатор кодека                     : XVID
Идентификатор кодека/Подсказка           : XviD
Продолжительность                        : 2 ч. 13 м.
Битрейт                                  : 1362 Кбит/сек
Ширина                                   : 720 пикселей
Высота                                   : 384 пикселя
Соотношение сторон                       : 1,85:1
Частота кадров                           : 23,976 (23976/1000) кадра/сек
Цветовое пространство                    : YUV
Субдискретизация насыщенности            : 4:2:0
Битовая глубина                          : 8 бит
Тип развёртки                            : Прогрессивная
Метод сжатия                             : С потерями
Бит/(Пиксели*Кадры)                      : 0.205
Размер потока                            : 1,27 Гбайт (87%)
Библиотека кодирования                   : XviD 1.2.1 (UTC 2008-12-04)

Аудио
Идентификатор                            : 1
Формат                                   : AC-3
Формат/Информация                        : Audio Coding 3
Расширение режима                        : CM (complete main)
Параметр Endianness формата              : Big
Идентификатор кодека                     : 2000
Продолжительность                        : 2 ч. 13 м.
Вид битрейта                             : Постоянный
Битрейт                                  : 192 Кбит/сек
Каналы                                   : 2 канала
Расположение каналов                     : Front: L R
Частота                                  : 48,0 КГц
Частота кадров                           : 31,250 кадров/сек (1536 spf)
Метод сжатия                             : С потерями
Задержка видео                           : 1 с. 550 мс.
Размер потока                            : 184 Мбайт (12%)
Выравнивание                             : Разделение по промежуткам
Продолжительность промежутка             : 42  мс. (1,00 видеокадр)
Время предзагрузки промежутка            : 500  мс.
Раздаю с 01:00 до 07:00 по МСК!
info [Профиль]  [ЛС] 

apx1med

Пол: Пол:Муж

Стаж: 6 лет 9 месяцев

Сообщений: 651

СССР
Рейтинг

post 17-Ноя-2016 00:18 (спустя 3 минуты) [-]0[+]

[Цитировать] 

Раздаю с 01:00 до 07:00 по МСК!

_________________
Много людей могут слушать, но немного людей фактически слышат.
info [Профиль]  [ЛС] 

Alexxator

Стаж: 6 лет 2 месяца

Сообщений: 883

Рейтинг

post 17-Ноя-2016 10:05 (спустя 9 часов) [-]2[+]

[Цитировать] 

apx1med писал(а):

Раздаю с 01:00 до 07:00 по МСК!
Что это за маразм в условиях?
info [Профиль]  [ЛС] 

sova71

Пол: Пол:Муж

Стаж: 5 лет 5 месяцев

Сообщений: 10

Россия
Рейтинг

post 17-Ноя-2016 10:55 (спустя 49 минут) [-]0[+]

[Цитировать] 

Alexxator писал(а):

apx1med писал(а):

Раздаю с 01:00 до 07:00 по МСК!
Что это за маразм в условиях?
Плюсую, что за наглый провайдер на такое осмелился и с чем такой маразм вообще связан?!
info [Профиль]  [ЛС] 

Tuuari

Стаж: 7 лет 8 месяцев

Сообщений: 818

Рейтинг

post 17-Ноя-2016 11:11 (спустя 16 минут) [-]0[+]

[Цитировать] 

sova71
http://spb.megafon.ru/ai/document/8960/file/lo.pdf

_________________
Arbeit macht frei
info [Профиль]  [ЛС] 

SemDi73

Пол: Пол:Муж

Стаж: 3 года 9 месяцев

Сообщений: 20

Россия
Рейтинг

post 17-Ноя-2016 15:07 (спустя 3 часа) [-]0[+]

[Цитировать] 

Это старый дубляж? И есть ли качество получше с этим переводом? Заранее спасибо.
info [Профиль]  [ЛС] 

apx1med

Пол: Пол:Муж

Стаж: 6 лет 9 месяцев

Сообщений: 651

СССР
Рейтинг

post 17-Ноя-2016 16:59 (спустя 1 час 51 минута) [-]1[+]

[Цитировать] 

sova71 писал(а):

Alexxator писал(а):

apx1med писал(а):

Раздаю с 01:00 до 07:00 по МСК!
Что это за маразм в условиях?
Плюсую, что за наглый провайдер на такое осмелился и с чем такой маразм вообще связан?!
Этим промышляют операторы сотовой связи, обладателем модема которых я и являюсь. Не выросли они пока до круглосуточного безлимита Улыбаюсь

SemDi73 писал(а):

Это старый дубляж? И есть ли качество получше с этим переводом? Заранее спасибо.
Как не искал, происхождение данного дубляжа выяснить мне не удалось. Это очень хорошо почищенный VHS дубляж.

_________________
Много людей могут слушать, но немного людей фактически слышат.
info [Профиль]  [ЛС] 

poganetc

Пол: Пол:Муж

Стаж: 7 лет 8 месяцев

Сообщений: 21

Россия
Рейтинг

post 19-Ноя-2016 00:24 (спустя 1 день 7 часов) [-]-1[+]

[Цитировать] 

"Бубняж" очень безэмоциональный. Смотреть с ним мука.
info [Профиль]  [ЛС] 
Показать сообщения:    
Ответить на тему

Текущее время: 10-Дек 03:22

Часовой пояс: GMT + 4



Вы не можете начинать темы
Вы не можете отвечать на сообщения
Вы не можете редактировать свои сообщения
Вы не можете удалять свои сообщения
Вы не можете голосовать в опросах
Вы не можете прикреплять файлы к сообщениям
Вы не можете скачивать файлы