Ошибка

Mass Effect: Andromeda [2017 г., Trailer, WEBRip 1080p]

Ответить на тему
 
Автор Сообщение

darksteam

Пол: Пол:Муж

Стаж: 3 месяца 17 дней

Сообщений: 30

Россия
Рейтинг

post 08-Ноя-2016 22:22 0[+]

[Цитировать] 

Информация
Название: Mass Effect: Andromeda
Жанр: action, RPG
Год выхода: 2017
Разработчик: BioWare
Издатель: Electronic Arts
Платформа: PC, PS4, Xbox one

О игре:
В настоящий момент о сюжете Mass Effect: Andromeda известно довольно мало. По словам разработчиков, главным героем вместо капитана Шепарда будет новый персонаж Сотрудники BioWare объявили о развитии сюжета игры в совершенно новом регионе космоса. Главных персонажей оригинальной трилогии не будет, но не исключена вероятность появления второстепенных На выставке Electronic Entertainment Expo 2015 было подтверждено, что действия игры развернутся в Галактике Андромеды.

Файл
Качество: WEBRip 1080p
Формат: MP4
Видео: MPEG4 Video (AVC) 1920x1080, 29,970 кадров/сек, 3135 Кбит/сек
Аудио: AAC 44,1 КГц stereo 126kbps
Продолжительность: 0:01:42
Перевод: не требуется

Код:

General
Complete name                           
Format                                   : MPEG-4
Format profile                           : Base Media
Codec ID                                 : isom (isom/iso2/avc1/mp41)
File size                                : 39.9 MiB
Duration                                 : 1mn 42s
Overall bit rate                         : 3 267 Kbps
Writing application                      : Lavf55.33.100

Video
ID                                       : 1
Format                                   : AVC
Format/Info                              : Advanced Video Codec
Format profile                           : High@L4
Format settings, CABAC                   : Yes
Format settings, ReFrames                : 2 frames
Codec ID                                 : avc1
Codec ID/Info                            : Advanced Video Coding
Duration                                 : 1mn 42s
Duration_FirstFrame                      : -33ms
Bit rate                                 : 3 135 Kbps
Width                                    : 1 920 pixels
Height                                   : 1 080 pixels
Display aspect ratio                     : 16:9
Frame rate mode                          : Variable
Frame rate                               : 29.970 (29970/1000) fps
Minimum frame rate                       : 29.970 fps
Maximum frame rate                       : 29.990 fps
Color space                              : YUV
Chroma subsampling                       : 4:2:0
Bit depth                                : 8 bits
Scan type                                : Progressive
Bits/(Pixel*Frame)                       : 0.050
Stream size                              : 38.3 MiB (96%)

Audio
ID                                       : 2
Format                                   : AAC
Format/Info                              : Advanced Audio Codec
Format profile                           : LC
Codec ID                                 : 40
Duration                                 : 1mn 42s
Bit rate mode                            : Constant
Bit rate                                 : 126 Kbps
Channel(s)                               : 2 channels
Channel positions                        : Front: L R
Sampling rate                            : 44.1 KHz
Frame rate                               : 43.066 fps (1024 spf)
Compression mode                         : Lossy
Stream size                              : 1.53 MiB (4%)
Default                                  : Yes
Alternate group                          : 1
info [Профиль]  [ЛС] 

uior

Стаж: 5 лет

Сообщений: 28

Рейтинг

post 09-Ноя-2016 02:16 (спустя 3 часа) [-]22[+]

[Цитировать] 

Я конечно и оценил и поблагодарил....я люблю ME.
Но спасибо тому кто мне объяснит зачем это вообще тут есть?
info [Профиль]  [ЛС] 

Shakaaho

Пол: Пол:Муж

Стаж: 2 года 5 месяцев

Сообщений: 799

Предупреждений: 3

Россия
Рейтинг

post 09-Ноя-2016 05:32 (спустя 3 часа) [-]0[+]

[Цитировать] 

uior
фанаты любят ролики HD. Хотя тоже не понял.
info [Профиль]  [ЛС] 

IgorKaa

Пол: Пол:Муж

Стаж: 6 лет 2 месяца

Сообщений: 37

Россия
Рейтинг

post 09-Ноя-2016 05:59 (спустя 27 минут) [-]7[+]

[Цитировать] 

Shakaaho писал(а):

uior
фанаты любят ролики HD. Хотя тоже не понял.
Но ведь на официальном YouTube канале качество вплоть до 4к.
info [Профиль]  [ЛС] 

BorisOpium

Пол: Пол:Муж

Стаж: 5 лет 5 месяцев

Сообщений: 26

Россия
Рейтинг

post 09-Ноя-2016 10:33 (спустя 4 часа) [-]2[+]

[Цитировать] 

IgorKaa
Есть такая теория, что это для тех, у кого медленный инет в деревне и легче скачать, чем загрузить онлайн.
info [Профиль]  [ЛС] 

dotachin

Стаж: 6 лет 4 месяца

Сообщений: 298

Рейтинг

post 09-Ноя-2016 12:28 (спустя 1 час 55 минут) [-]5[+]

[Цитировать] 

Дожились. CamRip игры
info [Профиль]  [ЛС] 

darksteam

Пол: Пол:Муж

Стаж: 3 месяца 17 дней

Сообщений: 30

Россия
Рейтинг

post 09-Ноя-2016 13:01 (спустя 32 минуты) [-]-9[+]

[Цитировать] 

это трелер игры что разогреть перед выходом

_________________
info [Профиль]  [ЛС] 

fens1

Пол: Пол:Муж

Стаж: 6 лет 7 месяцев

Сообщений: 25

Россия
Рейтинг

post 09-Ноя-2016 14:03 (спустя 1 час 2 минуты) [-]2[+]

[Цитировать] 

darksteam писал(а):

это трелер игры что разогреть перед выходом
Спасибо конечно, мы поняли что это трейлер
info [Профиль]  [ЛС] 

AlexZv1976

Пол: Пол:Муж

Стаж: 3 года 9 месяцев

Сообщений: 41

Украина
Рейтинг

post 09-Ноя-2016 14:23 (спустя 20 минут) [-]1[+]

[Цитировать] 

Борода у этого трейлера не менее, чем полугодичная Грущу(((

пїЅпїЅпїЅпїЅпїЅпїЅпїЅпїЅпїЅ пїЅпїЅпїЅпїЅпїЅпїЅ 1 минута:

Кажется, как раз с выставки Electronic Entertainment Expo 2015 Улыбаюсь
info [Профиль]  [ЛС] 

uior

Стаж: 5 лет

Сообщений: 28

Рейтинг

post 09-Ноя-2016 14:55 (спустя 31 минута) [-]0[+]

[Цитировать] 

AlexZv1976 писал(а):

Борода у этого трейлера не менее, чем полугодичная Грущу(((

пїЅпїЅпїЅпїЅпїЅпїЅпїЅпїЅпїЅ пїЅпїЅпїЅпїЅпїЅпїЅ 1 минута:

Кажется, как раз с выставки Electronic Entertainment Expo 2015 Улыбаюсь
Тогда уж 2016...если полугодичная.Да и мне кажется в 15 трейлеров не было....
info [Профиль]  [ЛС] 

devcor

Пол: Пол:Муж

Стаж: 6 лет 3 месяца

Сообщений: 398

Россия
Рейтинг

post 09-Ноя-2016 21:58 (спустя 7 часов) [-]0[+]

[Цитировать] 

BorisOpium писал(а):

IgorKaa
Есть такая теория, что это для тех, у кого медленный инет в деревне и легче скачать, чем загрузить онлайн.
Теорию такую слышал, а на практике чот нифига не так выходит.

_________________
Life knows two miseries: getting what you don't want and not getting what you want.
---
Intel Core i5-4430 @ 3.00 GHz
NVidia Geforce GTX 770
8GB RAM
info [Профиль]  [ЛС] 

321Andruxa321

Пол: Пол:Муж

Стаж: 3 года 8 месяцев

Сообщений: 2

Украина
Рейтинг

post 09-Ноя-2016 23:16 (спустя 1 час 18 минут) [-]0[+]

[Цитировать] 

Автор ты так не пугай! Ато я уже подумал что это какая нибудь бета или что то типа того!
info [Профиль]  [ЛС] 
Показать сообщения:    
Ответить на тему

Текущее время: 09-Дек 00:15

Часовой пояс: GMT + 4



Вы не можете начинать темы
Вы не можете отвечать на сообщения
Вы не можете редактировать свои сообщения
Вы не можете удалять свои сообщения
Вы не можете голосовать в опросах
Вы не можете прикреплять файлы к сообщениям
Вы не можете скачивать файлы