Ошибка

До окончания фрилича осталось:


Боруто: Фильм Наруто / Boruto: Naruto the Movie [Movie] [2015] [приключения, комедия, боевые искусства, сёнэн] [BDRip] [1080p] [Любительский (JAP+SUB)]

Ответить на тему
 
Автор Сообщение

xetrin

Пол: Пол:Муж

Стаж: 4 года 7 месяцев

Сообщений: 56

Россия
Рейтинг

post 05-Ноя-2016 05:46 2[+]

[Цитировать] 


Боруто: Фильм Наруто / Boruto: Naruto the Movie

Страна: Япония
Год выпуска: 2015 г.
Жанр: приключения, комедия, боевые искусства, сёнэн
Тип: Фильм
Продолжительность: 01:35:19
Режиссер: Ямасита Хироюки
Озвучивание: многоголосое (муж./жен.): Lupin, Silv, Itashi [AniLibria.TV]
Студия:
Описание: Боруто Узумаки — сын Наруто Узумаки, героя Скрытого листа и 7 Хокагэ. Главный герой сея истории весьма одарен, но ненавидит работу Наруто и поэтому считает его неважным отцом. Боруто считает своего отца героем, и в его сердце возникает желание превзойти героический путь отца, и лучшей идеей для этого становится намерение стать учеником человека, который знал его отца с ранних лет и являлся одновременно соперником и лучшим другом. Но что думает об этом сам Саскэ Учиха? В то время, как команда Боруто обзаведется своим сэнсэем, Боруто будет называть учителем Саскэ. Итак, наступает новая эпоха для жизни нового поколения шиноби.
Субтитры: Firegorn Team
Перевод и оформление: Redgar-firegorn
Редактирование: 8Bochan8
Сверка с японским: Nucha
Спонсор перевода: Павел Тыщенко
Качество: BDRip
Тип релиза: Без хардсаба
Формат видео: MKV
Релиз/Автор рипа: xetrin [tr.anidub.com]
Ретайминг звука: xetrin

Видео: H.264 | 1920x1080 | 17 Mb/s | 23.976 fps | 8 bits
Аудио 1: AAC | Встроенное | 192 kb/s | 48kHz | 2 ch | Язык: Русский
Аудио 2: DTS | Встроенное | 3 247 kb/s | 48kHz | 6 ch | Язык: Японский
Аудио 3: PCM | Встроенное | 2 304 kb/s | 48kHz | 2 ch | Язык: Японский
Субтитры 1: SRT | Внешние | Язык субтитров: английский
Субтитры 2: ASS | Внешние | Язык субтитров: английский
Субтитры 3: SRT | Внешние | Язык субтитров: испанский
Субтитры 4: ASS | Внешние | Язык субтитров: русский
Субтитры 5: ASS | Встроенные | Надписи | Язык субтитров: русский
Субтитры 6: PGS | Встроенные | Язык субтитров: японский
General
Unique ID : 222761045346997856918613864062820561309 (0xA796377E162A766D87CBE6845964319D)
Complete name : F:\Аниме\[xetrin]_Boruto_-_Naruto_the_Movie_[2015]_[BDRip_1080p]\[xetrin]_Boruto_-_Naruto_the_Movie_[2015]_[BDRip_1080p_x264_AAC].mkv
Format : Matroska
Format version : Version 4 / Version 2
File size : 15.2 GiB
Duration : 1 h 35 min
Overall bit rate : 22.8 Mb/s
Encoded date : UTC 2016-11-04 19:30:45
Writing application : mkvmerge v9.2.0 ('Photograph') 64bit
Writing library : libebml v1.3.3 + libmatroska v1.4.4

Video
ID : 1
Format : AVC
Format/Info : Advanced Video Codec
Format profile : High@L4.1
Format settings, CABAC : Yes
Format settings, ReFrames : 4 frames
Codec ID : V_MPEG4/ISO/AVC
Duration : 1 h 35 min
Bit rate : 17.0 Mb/s
Width : 1 920 pixels
Height : 1 080 pixels
Display aspect ratio : 16:9
Frame rate mode : Constant
Frame rate : 23.976 (24000/1001) FPS
Color space : YUV
Chroma subsampling : 4:2:0
Bit depth : 8 bits
Scan type : Progressive
Bits/(Pixel*Frame) : 0.342
Stream size : 11.3 GiB (75%)
Writing library : x264 core 148 r2705 3f5ed56
Encoding settings : cabac=1 / ref=3 / deblock=1:0:0 / analyse=0x3:0x113 / me=hex / subme=7 / psy=1 / psy_rd=1.00:0.00 / mixed_ref=1 / me_range=16 / chroma_me=1 / trellis=1 / 8x8dct=1 / cqm=0 / deadzone=21,11 / fast_pskip=1 / chroma_qp_offset=-2 / threads=6 / lookahead_threads=1 / sliced_threads=0 / nr=0 / decimate=1 / interlaced=0 / bluray_compat=0 / constrained_intra=0 / bframes=3 / b_pyramid=2 / b_adapt=1 / b_bias=0 / direct=1 / weightb=1 / open_gop=0 / weightp=2 / keyint=250 / keyint_min=23 / scenecut=40 / intra_refresh=0 / rc_lookahead=40 / rc=abr / mbtree=1 / bitrate=17000 / ratetol=1.0 / qcomp=0.60 / qpmin=0 / qpmax=69 / qpstep=4 / ip_ratio=1.40 / aq=1:1.00
Language : Japanese
Default : Yes
Forced : No

Audio #1
ID : 2
Format : AAC
Format/Info : Advanced Audio Codec
Format profile : LC
Codec ID : A_AAC
Duration : 1 h 35 min
Bit rate : 192 kb/s
Channel(s) : 2 channels
Channel positions : Front: L R
Sampling rate : 48.0 kHz
Frame rate : 46.875 FPS (1024 spf)
Compression mode : Lossy
Stream size : 131 MiB (1%)
Title : Russian [Lupin and Silv and Itashi]
Language : Russian
Default : Yes
Forced : No

Audio #2
ID : 3
Format : DTS
Format/Info : Digital Theater Systems
Format profile : MA / Core
Mode : 16
Format settings, Endianness : Big
Codec ID : A_DTS
Duration : 1 h 35 min
Bit rate mode : Variable / Constant
Bit rate : 3 247 kb/s / 1 509 kb/s
Channel(s) : 6 channels
Channel positions : Front: L C R, Side: L R, LFE
Sampling rate : 48.0 kHz
Frame rate : 93.750 FPS (512 spf)
Bit depth : 24 bits
Compression mode : Lossless / Lossy
Stream size : 2.16 GiB (14%)
Language : Japanese
Default : No
Forced : No

Audio #3
ID : 4
Format : PCM
Codec ID : A_PCM/INT/LIT
Duration : 1 h 35 min
Bit rate mode : Constant
Bit rate : 2 304 kb/s
Channel(s) : 2 channels
Sampling rate : 48.0 kHz
Frame rate : 200.000 FPS (240 spf)
Bit depth : 24 bits
Stream size : 1.53 GiB (10%)
Language : Japanese
Default : No
Forced : No

Text #1
ID : 5
Format : ASS
Codec ID : S_TEXT/ASS
Codec ID/Info : Advanced Sub Station Alpha
Duration : 45 min
Bit rate : 14 b/s
Count of elements : 34
Compression mode : Lossless
Stream size : 4.83 KiB (0%)
Title : Russian [Forced] [Firegorn Team]
Language : Russian
Default : Yes
Forced : No

Text #2
ID : 6
Format : PGS
Muxing mode : zlib
Codec ID : S_HDMV/PGS
Codec ID/Info : Picture based subtitle format used on BDs/HD-DVDs
Duration : 1 h 32 min
Bit rate : 73.4 kb/s
Count of elements : 6342
Stream size : 48.8 MiB (0%)
Language : Japanese
Default : No
Forced : No

Menu
00:00:00.000 : en:00:00:00.000
00:02:57.844 : en:00:02:57.844
00:06:51.411 : en:00:06:51.411
00:11:30.148 : en:00:11:30.148
00:14:51.808 : en:00:14:51.808
00:18:37.116 : en:00:18:37.116
00:22:01.487 : en:00:22:01.487
00:33:18.455 : en:00:33:18.455
00:45:09.332 : en:00:45:09.332
00:48:25.444 : en:00:48:25.444
00:56:13.370 : en:00:56:13.370
01:04:44.380 : en:01:04:44.380
01:11:56.979 : en:01:11:56.979
01:16:21.076 : en:01:16:21.076
01:21:43.899 : en:01:21:43.899
01:25:50.354 : en:01:25:50.354
01:29:50.385 : en:01:29:50.385
01:34:22.240 : en:01:34:22.240
info [Профиль]  [ЛС] 

post 05-Ноя-2016 21:21 (спустя 15 часов) [-]0[+]

Топик был перенесен из форума Аниме (Основной) в форум HD Rips

Pharaon
 

NIKE007

Пол: Пол:Муж

Стаж: 5 лет 3 месяца

Сообщений: 68

Россия
Рейтинг

post 05-Ноя-2016 23:27 (спустя 17 часов) [-]0[+]

[Цитировать] 

О да. Фильм о сыне Наруто... Никогда бы не подумал
info [Профиль]  [ЛС] 

Alexxator

Стаж: 6 лет 2 месяца

Сообщений: 883

Рейтинг

post 05-Ноя-2016 23:52 (спустя 24 минуты) [-]-2[+]

[Цитировать] 

Как смотрящему мульт Наруто и без зазрения совести пропускающему флеймы и проматывающему всякие воспоминания на полсерии - стоит смотреть? И кстати, стоит смотреть предыдущие фильмы и если да, то какие именно?
info [Профиль]  [ЛС] 

bvak

Пол: Пол:Муж

Стаж: 5 лет 5 месяцев

Сообщений: 313

Украина
Рейтинг

post 06-Ноя-2016 00:40 (спустя 47 минут) [-]1[+]

[Цитировать] 

Alexxator писал(а):

Как смотрящему мульт Наруто и без зазрения совести пропускающему флеймы и проматывающему всякие воспоминания на полсерии - стоит смотреть? И кстати, стоит смотреть предыдущие фильмы и если да, то какие именно?
Нет. Можешь глянуть Последний фильм о Наруто как эпилог.
info [Профиль]  [ЛС] 

xetrin

Пол: Пол:Муж

Стаж: 4 года 7 месяцев

Сообщений: 56

Россия
Рейтинг

post 06-Ноя-2016 03:19 (спустя 2 часа 39 минут) [-]0[+]

[Цитировать] 

bvak писал(а):

Alexxator писал(а):

Как смотрящему мульт Наруто и без зазрения совести пропускающему флеймы и проматывающему всякие воспоминания на полсерии - стоит смотреть? И кстати, стоит смотреть предыдущие фильмы и если да, то какие именно?
Нет. Можешь глянуть Последний фильм о Наруто как эпилог.
И посмотреть OVA серию перед фильмом Боруто)
info [Профиль]  [ЛС] 

Gokudo

Пол: Пол:Муж

Стаж: 6 лет 7 месяцев

Сообщений: 88

Рейтинг

post 06-Ноя-2016 05:05 (спустя 1 час 45 минут) [-]1[+]

[Цитировать] 

может и сериал сделают. боруто: бураганные хроники)
info [Профиль]  [ЛС] 

alex678

Пол: Пол:Муж

Стаж: 3 года 8 месяцев

Сообщений: 12

Россия
Рейтинг

post 06-Ноя-2016 07:41 (спустя 2 часа 36 минут) [-]1[+]

[Цитировать] 

может и сериал сделают. боруто: бураганные хроники)
Не дай бог
info [Профиль]  [ЛС] 

dregtar

Пол: Пол:Муж

Стаж: 6 лет 8 месяцев

Сообщений: 349

Россия
Рейтинг

post 06-Ноя-2016 08:02 (спустя 21 минута) [-]0[+]

[Цитировать] 

Gokudo писал(а):

может и сериал сделают. боруто: бураганные хроники)
Почему может? Мангу же начали выпускать

_________________
info [Профиль]  [ЛС] 
Показать сообщения:    
Ответить на тему

Текущее время: 10-Дек 12:55

Часовой пояс: GMT + 4



Вы не можете начинать темы
Вы не можете отвечать на сообщения
Вы не можете редактировать свои сообщения
Вы не можете удалять свои сообщения
Вы не можете голосовать в опросах
Вы не можете прикреплять файлы к сообщениям
Вы не можете скачивать файлы