Ошибка

Атлантида 1, 2 / Atlantis [2001, 2003 г., фантастика, приключения, мультфильм, DVDRip]

Ответить на тему
 
Автор Сообщение

Phoenix2002

Пол: Пол:Муж

Стаж: 7 лет 1 месяц

Сообщений: 100

Предупреждений: 1

СССР
Рейтинг

post 15-Дек-2009 13:43 1[+]

[Цитировать] 

pic="http://img3.immage.de/1512500.jpg"
Атлантида: Затерянный мир / Atlantis: The Lost Empire

Год выпуска: 2001
Страна: США
Жанр: фантастика, приключения, семейный, мультфильм
Продолжительность:01:31:50
Перевод: русский, профессиональный (полное дублирование)
Оригинальные голоса: Майкл Дж. Фокс, Кори Бертон, Клаудия Кристиан, Джеймс Гарнер, Джон Махони, Фил Моррис
Роли дублировали: Андрей Матвеев, Игорь Шибанов, Ирина Коновалова, Николай Буров, Марк Макаренков
Режиссер: Гари Труздейл, Кирк Уайз
Описание:
Атлантида… Мечтою найти легендарный затонувший в пучинах океана остров грезили многие смельчаки. Но только юному картографу Майло Тэтчу повезло: в 1914 году в его руки попал таинственный дневник, указывающий путь к Затерянной империи. И вот уже самая могучая подводная лодка в мире под командованием неустрашимого капитана Рурка выходит в открытый океан.
Майло и его спутников ждет множество незабываемых приключений, превосходящих все похождения капитана Немо: схватка с морским чудовищем, древние загадки, буйство стихий, мистические силы и даже встреча с цивилизацией атлантов! И это лишь малая толика того, что ждет героев на их пути к тайнам великой Атлантиды.
Качество: DVDRip
Формат: AVI
Видео кодек: XviD build 47
Аудио кодек: AC3 Dolby Digital
Video
Format : MPEG-4 Visual
Format profile : Streaming Video@L1
Format settings, BVOP : Yes
Format settings, QPel : No
Format settings, GMC : No warppoints
Format settings, Matrix : Custom
Codec ID : XVID
Codec ID/Hint : XviD
Duration : 1h 31mn
Bit rate : 1 882 Kbps
Width : 720 pixels
Height : 544 pixels
Display aspect ratio : 4/3
Frame rate : 25.000 fps
Resolution : 24 bits
Colorimetry : 4:2:0
Scan type : Progressive
Bits/(Pixel*Frame) : 0.192
Stream size : 1.21 GiB (83%)
Writing library : XviD 1.2.0.dev47 (UTC 2006-11-01)
Audio
Format : AC-3
Format/Info : Audio Coding 3
Codec ID : 2000
Duration : 1h 31mn
Bit rate mode : Constant
Bit rate : 384 Kbps
Channel(s) : 6 channels
Channel positions : Front: L C R, Surround: L R, LFE
Sampling rate : 48.0 KHz
Stream size : 252 MiB (17%)
Alignment : Aligned on interleaves
Interleave, duration : 96 ms (2.40 video frames)
Interleave, preload duration : 96 ms
Language : Russian
Атлантида 2: Возвращение Майло / Atlantis 2: Milo's Return

Год выпуска:2003
Страна:США
Жанр: боевик, комедия, приключения, семейный, мультфильм
Продолжительность: 01:17:09
Перевод: русский, профессиональный (полное дублирование)
Оригинальные голоса: Джеймс Арнольд Тейлор, Кри Саммер, Джон Махони, Жаклин Обрадорс, Дон Новелло, Кори Бертон, Фил Моррис
Режиссер:Виктор Кук, Тоби Шелтон, Тэд Стоунс
Описание:
Мийло, Кидо и команда смелых исследователей Атлантиды возвращаются в новых приключениях, полных ожидания и действия. В течение первой экспедиции Майло и Кида открыли подводное царство, а так же спасли его и всех его обитателей. Теперь опасность подкралась с поверхности воды и отважным героям придется покинуть Атлантиду…
Качество: DVDRip
Формат: MPEG-4 Visual
Видео кодек: XviD Final 1.0.1 (build 35)
Аудио кодек: AC3 Dolby Digital
Video
Format : MPEG-4 Visual
Format settings, BVOP : No
Format settings, QPel : No
Format settings, GMC : No warppoints
Format settings, Matrix : Default
Codec ID : XVID
Codec ID/Hint : XviD
Duration : 1h 17mn
Bit rate : 2 082 Kbps
Width : 720 pixels
Height : 432 pixels
Display aspect ratio : 1.667
Frame rate : 25.000 fps
Resolution : 24 bits
Colorimetry : 4:2:0
Scan type : Progressive
Bits/(Pixel*Frame) : 0.268
Stream size : 1.12 GiB (91%)
Writing library : XviD 1.0.1 (UTC 2004-06-05)
Audio
Format : AC-3
Format/Info : Audio Coding 3
Codec ID : 2000
Duration : 1h 17mn
Bit rate mode : Constant
Bit rate : 192 Kbps
Channel(s) : 2 channels
Channel positions : L R
Sampling rate : 48.0 KHz
Stream size : 106 MiB (8%)
Alignment : Split accross interleaves
Interleave, duration : 40 ms (1.00 video frame)
Interleave, preload duration : 500 ms
Language : Russian
info [Профиль]  [ЛС] 

Constant

Пол: Пол:Муж

Стаж: 7 лет 2 месяца

Сообщений: 466

Россия
Рейтинг

post 15-Дек-2009 20:00 (спустя 6 часов) [-]0[+]

[Цитировать] 

Спасибо за раздачу Phoenix2002!

_________________
Xbox 360 slim 250gb+kinect LT+2.0 Dashboard 2.0 16536
PC CPU FX8320 RAM 8gb 1600 GPU R9 270X SSD 120 HDD 2TB Power 750W
info [Профиль]  [ЛС] 

Phoenix2002

Пол: Пол:Муж

Стаж: 7 лет 1 месяц

Сообщений: 100

Предупреждений: 1

СССР
Рейтинг

post 15-Дек-2009 20:29 (спустя 28 минут) [-]0[+]

[Цитировать] 

пожалуйста, но как я наверное упоминал (в др. раздачах) скорость мизерная. прошу поиметь терпение. Спасибо за понимание. kolob_103
info [Профиль]  [ЛС] 
Показать сообщения:    
Ответить на тему

Текущее время: 04-Дек 05:53

Часовой пояс: GMT + 4



Вы не можете начинать темы
Вы не можете отвечать на сообщения
Вы не можете редактировать свои сообщения
Вы не можете удалять свои сообщения
Вы не можете голосовать в опросах
Вы не можете прикреплять файлы к сообщениям
Вы не можете скачивать файлы