Ошибка

До окончания фрилича осталось:


(Punk-Rock) Green Day - Revolution Radio - 2016, FLAC (tracks+.cue), lossless

Ответить на тему
 
Автор Сообщение

The Royal

Пол: Пол:Муж

Стаж: 6 лет 11 месяцев

Сообщений: 652

Россия
Рейтинг

post 30-Окт-2016 23:47 0[+]

[Цитировать] 

pic="http://i84.fastpic.ru/big/2016/1030/54/b5be6406595770c01385a4b7448be754.jpg"
Green Day - Revolution Radio

Жанр: Punk-Rock
Год издания данного носителя: 2016
Страна-производитель носителя: USA
Аудио кодек: FLAC
Тип рипа: tracks+.cue
Битрейт аудио: lossless
Продолжительность: 00:44:38
Полиграфия: Отсутствует
Треклист:
01. Somewhere Now (4:09)
02. Bang Bang (3:25)
03. Revolution Radio (3:01)
04. Say Goodbye (3:39)
05. Outlaws (5:03)
06. Bouncing Off The Wall (2:40)
07. Still Breathing (3:45)
08. Youngblood (2:33)
09. Too Dumb To Die (3:24)
10. Troubled Times (3:05)
11. Forever Now (6:52)
12. Ordinary World (3:03)
Exact Audio Copy V1.1 from 23. June 2015 

EAC extraction logfile from 11. October 2016, 17:48

Green Day / Revolution Radio

Used drive : HL-DT-STDVDRAM GP50NB40 Adapter: 1 ID: 1

Read mode : Secure
Utilize accurate stream : Yes
Defeat audio cache : Yes
Make use of C2 pointers : No

Read offset correction : 6
Overread into Lead-In and Lead-Out : No
Fill up missing offset samples with silence : Yes
Delete leading and trailing silent blocks : No
Null samples used in CRC calculations : Yes
Used interface : Native Win32 interface for Win NT & 2000
Gap handling : Appended to previous track

Used output format : User Defined Encoder
Selected bitrate : 1024 kBit/s
Quality : High
Add ID3 tag : No
Command line compressor : C:Program Files (x86)Exact Audio CopyFlacflac.exe
Additional command line options : -8 -V -T "ARTIST=%artist%" -T "TITLE=%title%" -T "ALBUM=%albumtitle%" -T "DATE=%year%" -T "TRACKNUMBER=%tracknr%" -T "GENRE=%genre%" -T "PERFORMER=%albuminterpret%" -T "COMPOSER=%composer%" %haslyrics%--tag-from-file=LYRICS="%lyricsfile%"%haslyrics% -T "ALBUMARTIST=%albumartist%" -T "DISCNUMBER=%cdnumber%" -T "TOTALDISCS=%totalcds%" -T "TOTALTRACKS=%numtracks%" -T "COMMENT=%comment%" %source% -o %dest%

TOC of the extracted CD

Track | Start | Length | Start sector | End sector
---------------------------------------------------------
1 | 0:00.00 | 4:09.27 | 0 | 18701
2 | 4:09.27 | 3:24.58 | 18702 | 34059
3 | 7:34.10 | 3:00.69 | 34060 | 47628
4 | 10:35.04 | 3:39.26 | 47629 | 64079
5 | 14:14.30 | 5:02.42 | 64080 | 86771
6 | 19:16.72 | 2:40.22 | 86772 | 98793
7 | 21:57.19 | 3:44.57 | 98794 | 115650
8 | 25:42.01 | 2:32.57 | 115651 | 127107
9 | 28:14.58 | 3:23.43 | 127108 | 142375
10 | 31:38.26 | 3:04.61 | 142376 | 156236
11 | 34:43.12 | 6:52.26 | 156237 | 187162
12 | 41:35.38 | 3:02.67 | 187163 | 200879

Track 1

Filename C:UsersRJDesktopGreen Day- Revolution Radio1 Somewhere Now.wav

Pre-gap length 0:00:02.00

Peak level 99.7 %
Extraction speed 1.1 X
Track quality 100.0 %
Test CRC 48A79410
Copy CRC 48A79410
Track not present in AccurateRip database
Copy OK

Track 2

Filename C:UsersRJDesktopGreen Day- Revolution Radio2 Bang Bang.wav

Peak level 99.7 %
Extraction speed 1.2 X
Track quality 100.0 %
Test CRC E6C983CD
Copy CRC E6C983CD
Track not present in AccurateRip database
Copy OK

Track 3

Filename C:UsersRJDesktopGreen Day- Revolution Radio3 Revolution Radio.wav

Peak level 99.7 %
Extraction speed 1.1 X
Track quality 99.9 %
Test CRC B652C445
Copy CRC B652C445
Track not present in AccurateRip database
Copy OK

Track 4

Filename C:UsersRJDesktopGreen Day- Revolution Radio4 Say Goodbye.wav

Peak level 99.7 %
Extraction speed 1.4 X
Track quality 100.0 %
Test CRC BD1B904B
Copy CRC BD1B904B
Track not present in AccurateRip database
Copy OK

Track 5

Filename C:UsersRJDesktopGreen Day- Revolution Radio5 Outlaws.wav

Peak level 99.9 %
Extraction speed 1.6 X
Track quality 100.0 %
Test CRC B0B7BDF7
Copy CRC B0B7BDF7
Track not present in AccurateRip database
Copy OK

Track 6

Filename C:UsersRJDesktopGreen Day- Revolution Radio6 Bouncing Off The Wall.wav

Pre-gap length 0:00:00.22

Peak level 99.7 %
Extraction speed 1.5 X
Track quality 100.0 %
Test CRC 2E9C51D2
Copy CRC 2E9C51D2
Track not present in AccurateRip database
Copy OK

Track 7

Filename C:UsersRJDesktopGreen Day- Revolution Radio7 Still Breathing.wav

Pre-gap length 0:00:00.70

Peak level 99.7 %
Extraction speed 1.5 X
Track quality 99.9 %
Test CRC D2BF5AD7
Copy CRC D2BF5AD7
Track not present in AccurateRip database
Copy OK

Track 8

Filename C:UsersRJDesktopGreen Day- Revolution Radio8 Young Blood.wav

Peak level 99.7 %
Extraction speed 1.6 X
Track quality 100.0 %
Test CRC D5913011
Copy CRC D5913011
Track not present in AccurateRip database
Copy OK

Track 9

Filename C:UsersRJDesktopGreen Day- Revolution Radio9 Too Dumb To Die.wav

Peak level 99.7 %
Extraction speed 1.8 X
Track quality 100.0 %
Test CRC CEBE230C
Copy CRC CEBE230C
Track not present in AccurateRip database
Copy OK

Track 10

Filename C:UsersRJDesktopGreen Day- Revolution Radio10 Troubled Times.wav

Peak level 100.0 %
Extraction speed 1.8 X
Track quality 100.0 %
Test CRC 9A45CBF3
Copy CRC 9A45CBF3
Track not present in AccurateRip database
Copy OK

Track 11

Filename C:UsersRJDesktopGreen Day- Revolution Radio11 Forever Now.wav

Peak level 99.7 %
Extraction speed 2.0 X
Track quality 99.9 %
Test CRC 8672ACCC
Copy CRC 8672ACCC
Track not present in AccurateRip database
Copy OK

Track 12

Filename C:UsersRJDesktopGreen Day- Revolution Radio12 Ordinary Words.wav

Peak level 79.6 %
Extraction speed 2.0 X
Track quality 100.0 %
Test CRC 3F4B5AEA
Copy CRC 3F4B5AEA
Track not present in AccurateRip database
Copy OK

None of the tracks are present in the AccurateRip database

No errors occurred

End of status report

---- CUETools DB Plugin V2.1.6

[CTDB TOCID: LnjbP90UlVZBgAuBAFQQXnZH7l4-] found
Submit result: LnjbP90UlVZBgAuBAFQQXnZH7l4- has been confirmed
Track | CTDB Status
1 | (103/103) Accurately ripped
2 | (103/103) Accurately ripped
3 | (103/103) Accurately ripped
4 | (103/103) Accurately ripped
5 | (103/103) Accurately ripped
6 | (103/103) Accurately ripped
7 | (103/103) Accurately ripped
8 | (103/103) Accurately ripped
9 | (103/103) Accurately ripped
10 | (103/103) Accurately ripped
11 | (103/103) Accurately ripped
12 | (103/103) Accurately ripped

==== Log checksum EF01CE1D9FC3F1C3ECE6BCF17A54C1170A5799925C2F647062ECD97CE8A5BDD9 ====
REM GENRE Punk 
REM DATE 2016
REM DISCID AC0A760C
REM COMMENT "ExactAudioCopy v1.1"
CATALOG 0093624920069
PERFORMER "Green Day"
TITLE "Revolution Radio"
FILE "01 Somewhere Now.wav" WAVE
TRACK 01 AUDIO
TITLE "Somewhere Now"
PERFORMER "Green Day"
ISRC USRE11600426
INDEX 01 00:00:00
FILE "02 Bang Bang.wav" WAVE
TRACK 02 AUDIO
TITLE "Bang Bang"
PERFORMER "Green Day"
ISRC USRE11600427
INDEX 01 00:00:00
FILE "03 Revolution Radio.wav" WAVE
TRACK 03 AUDIO
TITLE "Revolution Radio"
PERFORMER "Green Day"
ISRC USRE11600428
INDEX 01 00:00:00
FILE "04 Say Goodbye.wav" WAVE
TRACK 04 AUDIO
TITLE "Say Goodbye"
PERFORMER "Green Day"
ISRC USRE11600428
INDEX 01 00:00:00
FILE "05 Outlaws.wav" WAVE
TRACK 05 AUDIO
TITLE "Outlaws"
PERFORMER "Green Day"
ISRC USRE11600430
INDEX 01 00:00:00
TRACK 06 AUDIO
TITLE "Bouncing Off The Wall"
PERFORMER "Green Day"
ISRC USRE11600431
INDEX 00 05:02:25
FILE "06 Bouncing Off The Wall.wav" WAVE
INDEX 01 00:00:00
TRACK 07 AUDIO
TITLE "Still Breathing"
PERFORMER "Green Day"
ISRC USRE11600432
INDEX 00 02:39:44
FILE "07 Still Breathing.wav" WAVE
INDEX 01 00:00:00
FILE "08 Young Blood.wav" WAVE
TRACK 08 AUDIO
TITLE "Young Blood"
PERFORMER "Green Day"
ISRC USRE11600433
INDEX 01 00:00:00
FILE "09 Too Dumb To Die.wav" WAVE
TRACK 09 AUDIO
TITLE "Too Dumb To Die"
PERFORMER "Green Day"
ISRC USRE11600434
INDEX 01 00:00:00
FILE "10 Troubled Times.wav" WAVE
TRACK 10 AUDIO
TITLE "Troubled Times"
PERFORMER "Green Day"
ISRC USRE11600435
INDEX 01 00:00:00
FILE "11 Forever Now.wav" WAVE
TRACK 11 AUDIO
TITLE "Forever Now"
PERFORMER "Green Day"
ISRC USRE11600436
INDEX 01 00:00:00
FILE "12 Ordinary Words.wav" WAVE
TRACK 12 AUDIO
TITLE "Ordinary Words"
PERFORMER "Green Day"
ISRC USRE11600437
INDEX 01 00:00:00
info [Профиль]  [ЛС] 

iCow

Стаж: 6 лет 3 месяца

Сообщений: 15

Рейтинг

post 01-Ноя-2016 15:02 (спустя 1 день 15 часов) [-]0[+]

[Цитировать] 

Хороший альбом, как и у sum41, оба порадовали.
info [Профиль]  [ЛС] 
Показать сообщения:    
Ответить на тему

Текущее время: 10-Дек 12:55

Часовой пояс: GMT + 4



Вы не можете начинать темы
Вы не можете отвечать на сообщения
Вы не можете редактировать свои сообщения
Вы не можете удалять свои сообщения
Вы не можете голосовать в опросах
Вы не можете прикреплять файлы к сообщениям
Вы не можете скачивать файлы