Ошибка

До окончания фрилича осталось:


Перезапись / Rewrite (TV-1) [1-13 из 13] [2016] [Комедия, романтика, школа] [HDTV720p] [Любительская (Многоголосая)]

Ответить на тему
 
Автор Сообщение

Chel90RUS

Пол: Пол:Муж

Стаж: 5 лет 5 месяцев

Сообщений: 413

Россия
Рейтинг

post 25-Окт-2016 14:51 0[+]

[Цитировать] 

pic="http://static2.anidub.com/tracker/poster/0dced78ff0.jpg"
Перезапись
Rewrite / リライト

Год выпуска: 2016
Жанр: Комедия, романтика, школа
Страна: Япония
Тип: HDTV
Продолжительность: 13 серий ~ 25 мин (1ая ~ 48 мин)
Дата выпуска: c 02.07.2016 по 24.09.2016
Режиссер: Танака Мотоки
Автор оригинала / Сценарист: Аосима Такаси
Студия: 8bit
Озвучено: Trina_D, Jade, Ancord
Перевод: Bobby Deimos
Тайминг и работа со звуком: Noah
Формат файла: Mp4
Аудио: AAC 48000Hz stereo 192kbps [A: English [eng] (aac lc, 48000 Hz, stereo, 192 kb/s)]
Видео: MPEG4 Video (H264) 1280x720 23.976fps 1645kbps [V: Mainconcept Video Media Handler [eng] (h264 main L3.2, yuv420p, 1280x720, 1645 kb/s)]

General
Complete name : \[AniDub]_ReWrite_[01]_[720p_x264_Aac]_[MVO].mp4
Format : MPEG-4
Format profile : Base Media
Codec ID : isom
File size : 637 MiB
Duration : 48mn 21s
Overall bit rate mode : Variable
Overall bit rate : 1 841 Kbps
Encoded date : UTC 2016-07-16 10:16:06
Tagged date : UTC 2016-07-16 10:16:06

Video
ID : 1
Format : AVC
Format/Info : Advanced Video Codec
Format profile : Main@L3.2
Format settings, CABAC : Yes
Format settings, ReFrames : 3 frames
Format settings, GOP : M=4, N=23
Codec ID : avc1
Codec ID/Info : Advanced Video Coding
Duration : 48mn 21s
Bit rate mode : Variable
Bit rate : 1 646 Kbps
Maximum bit rate : 9 850 Kbps
Width : 1 280 pixels
Height : 720 pixels
Display aspect ratio : 16:9
Frame rate mode : Variable
Frame rate : 23.976 fps
Minimum frame rate : 23.976 fps
Maximum frame rate : 23.988 fps
Standard : NTSC
Color space : YUV
Chroma subsampling : 4:2:0
Bit depth : 8 bits
Scan type : Progressive
Bits/(Pixel*Frame) : 0.074
Stream size : 569 MiB (89%)
Language : English
Encoded date : UTC 2016-07-04 13:56:26
Tagged date : UTC 2016-07-16 10:17:03
Color range : Limited

Audio
ID : 2
Format : AAC
Format/Info : Advanced Audio Codec
Format profile : LC
Codec ID : 40
Duration : 48mn 21s
Bit rate mode : Variable
Bit rate : 192 Kbps
Maximum bit rate : 196 Kbps
Channel(s) : 2 channels
Channel positions : Front: L R
Sampling rate : 48.0 KHz
Compression mode : Lossy
Stream size : 66.4 MiB (10%)
Language : English
Encoded date : UTC 2016-07-16 10:16:41
Tagged date : UTC 2016-07-16 10:17:03


Описание: Котаро Тэнноджи — ученик обычной старшей школы, которая расположена в живописном японском городе Казамацури. Он весело проводит время, общаясь со своей единственной подругой детства Котори и подшучивая над горделивым главным хулиганом школы Харухико.
Недовольный малым количеством друзей, Котаро решает вступить в клуб оккультизма, президентом которого является старшеклассница Аканэ, известная как «Ведьма». Со временем в клуб вступают Котори, переведённая ученица Чихая, а также две подруги: староста класса Люсия Конохана и ученица младших классов Шизуру Накацу.
В свободное от занятий время ребята вместе разгадывают мистические загадки города и школы, где начинают происходить странные вещи. Котаро и сам не замечает, как попадает меж двух огней, и оказывается втянут в войну двух всемирных тайных организаций.
info [Профиль]  [ЛС] 
Показать сообщения:    
Ответить на тему

Текущее время: 10-Дек 03:21

Часовой пояс: GMT + 4



Вы не можете начинать темы
Вы не можете отвечать на сообщения
Вы не можете редактировать свои сообщения
Вы не можете удалять свои сообщения
Вы не можете голосовать в опросах
Вы не можете прикреплять файлы к сообщениям
Вы не можете скачивать файлы