Ошибка

Новая игра / New game (TV) [1-12 из 12] [2016] [Повседневность, комедия] [HDTV720p] [Любительская (Многоголосая)]

Ответить на тему
 
Автор Сообщение

Chel90RUS

Пол: Пол:Муж

Стаж: 5 лет 5 месяцев

Сообщений: 413

Россия
Рейтинг

post 13-Окт-2016 20:48 0[+]

[Цитировать] 

pic="http://static2.anidub.com/tracker/poster/89c8722c90.jpg"
Новая игра
New game / New Game! / ニューゲーム

Год выпуска: 2016
Жанр: Приключения, комедия
Страна: Япония
Тип: HDTV
Продолжительность: 12 серий ~ 25 мин
Дата выпуска: c 04.07.2016 по 19.09.2016
Режиссер: Фудзивара Ёсиюки
Автор оригинала / Сценарист: Токуно Сётаро
Студия: Dogakobo
Озвучено: Торгиль, Esther, Cuba77
Перевод: BeastRUS (1), Саня Литвяк, Seiya Loveless (2-12)
Тайминг и работа со звуком: Pozitiv, Gradis
Формат файла: Mp4
Аудио: AAC 48000Hz stereo 192kbps [A: English [eng] (aac lc, 48000 Hz, stereo, 192 kb/s)]
Видео: MPEG4 Video (H264) 1280x720 23.976fps 1786kbps [V: 264 (h264 high L4.1, yuv420p, 1280x720, 1786 kb/s)]

General
Complete name : \[AniDub]_New_Game_[01]_[720p_x264_AAC]_[Torgil_Esther_Cuba77].mp4
Format : MPEG-4
Format profile : Base Media
Codec ID : isom
File size : 340 MiB
Duration : 24mn 0s
Overall bit rate mode : Variable
Overall bit rate : 1 982 Kbps
Encoded date : UTC 2016-07-06 18:11:36
Tagged date : UTC 2016-07-06 18:11:36

Video
ID : 1
Format : AVC
Format/Info : Advanced Video Codec
Format profile : High@L4.1
Format settings, CABAC : Yes
Format settings, ReFrames : 4 frames
Codec ID : avc1
Codec ID/Info : Advanced Video Coding
Duration : 24mn 0s
Bit rate : 1 786 Kbps
Maximum bit rate : 7 812 Kbps
Width : 1 280 pixels
Height : 720 pixels
Display aspect ratio : 16:9
Frame rate mode : Constant
Frame rate : 23.976 fps
Color space : YUV
Chroma subsampling : 4:2:0
Bit depth : 8 bits
Scan type : Progressive
Bits/(Pixel*Frame) : 0.081
Stream size : 307 MiB (90%)
Title : 264
Writing library : x264 core 129 r2245+729M 1a52e03
Encoding settings : cabac=1 / ref=4 / deblock=1:1:-1 / analyse=0x3:0x113 / me=umh / subme=9 / psy=1 / fade_compensate=0.00 / psy_rd=1.00:0.00 / mixed_ref=1 / me_range=24 / chroma_me=1 / trellis=2 / 8x8dct=1 / cqm=0 / deadzone=21,11 / fast_pskip=1 / chroma_qp_offset=-2 / threads=8 / lookahead_threads=1 / sliced_threads=0 / nr=0 / decimate=1 / interlaced=0 / bluray_compat=0 / constrained_intra=0 / fgo=0 / bframes=9 / b_pyramid=2 / b_adapt=2 / b_bias=0 / direct=1 / weightb=1 / open_gop=0 / weightp=2 / keyint=240 / keyint_min=24 / scenecut=40 / intra_refresh=0 / rc=crf / mbtree=0 / crf=18.5 / qcomp=0.72 / qpmin=0 / qpmax=69 / qpstep=4 / ip_ratio=1.40 / pb_ratio=1.30 / aq=1:0.85
Encoded date : UTC 2016-07-05 05:54:48
Tagged date : UTC 2016-07-06 18:11:37
Color range : Limited
Color primaries : BT.709
Transfer characteristics : BT.709
Matrix coefficients : BT.709

Audio
ID : 2
Format : AAC
Format/Info : Advanced Audio Codec
Format profile : LC
Codec ID : 40
Duration : 23mn 59s
Bit rate mode : Variable
Bit rate : 192 Kbps
Maximum bit rate : 196 Kbps
Channel(s) : 2 channels
Channel positions : Front: L R
Sampling rate : 48.0 KHz
Compression mode : Lossy
Stream size : 33.0 MiB (10%)
Language : English
Encoded date : UTC 2016-07-06 18:11:37
Tagged date : UTC 2016-07-06 18:11:37


Описание: Если ты задрот - это судьба, и с этим надо как-то жить. Именно поэтому, едва переступив порог старшей школы, Сузуказе Аоба идёт работать разработчиком видеоигр. Что ждёт её в новом мире взрослых детей и крутой графики? А вот и узнаем.
info [Профиль]  [ЛС] 

Alexxator

Стаж: 6 лет 2 месяца

Сообщений: 883

Рейтинг

post 14-Окт-2016 02:00 (спустя 5 часов) [-]0[+]

[Цитировать] 

Ну и что ее ждет? А главное, что ждет меня, если я посмотрю сей мульт?
info [Профиль]  [ЛС] 
Показать сообщения:    
Ответить на тему

Текущее время: 09-Дек 06:02

Часовой пояс: GMT + 4



Вы не можете начинать темы
Вы не можете отвечать на сообщения
Вы не можете редактировать свои сообщения
Вы не можете удалять свои сообщения
Вы не можете голосовать в опросах
Вы не можете прикреплять файлы к сообщениям
Вы не можете скачивать файлы