Ошибка

Невинные ангелы / Ange Vierge (TV) [1-12 из 12] [2016] [Приключения, фэнтези] [HDTV720p] [Любительская (Многоголосая)]

Ответить на тему
 
Автор Сообщение

Chel90RUS

Пол: Пол:Муж

Стаж: 5 лет 5 месяцев

Сообщений: 413

Россия
Рейтинг

post 08-Окт-2016 10:23 0[+]

[Цитировать] 

pic="http://static2.anidub.com/tracker/poster/7cedd8563a.jpg"
Невинные ангелы
Ange Vierge / アンジュ・ヴィエルジュ

Год выпуска: 2016
Жанр: Приключения, фэнтези
Страна: Япония
Тип: HDTV
Продолжительность: 12 серий ~ 25 мин
Дата выпуска: c 10.07.2016 по 25.09.2016
Режиссер: Тамура Масафуми
Автор оригинала / Сценарист: Такаяма Кацухико
Студия: Silver Link
Озвучено: Oni, Esther, Nika Lenina
Перевод: Oni
Тайминг и работа со звуком: Fraksinus
Формат файла: Mp4
Аудио: AAC 48000Hz stereo 192kbps [A: English [eng] (aac lc, 48000 Hz, stereo, 192 kb/s)]
Видео: MPEG4 Video (H264) 1280x720 23.976fps 1772kbps [V: h264 high L4.0, yuv420p, 1280x720, 1772 kb/s]

General
Complete name : \[AniDub]_Ange_Vierge_[01]_[720p_x264_Aac]_[MVO].mp4
Format : MPEG-4
Format profile : Base Media
Codec ID : isom
File size : 332 MiB
Duration : 23mn 36s
Overall bit rate mode : Variable
Overall bit rate : 1 968 Kbps
Encoded date : UTC 2016-07-11 18:22:04
Tagged date : UTC 2016-07-11 18:22:04
Writing application : Yamb 2.1.0.0

Video
ID : 1
Format : AVC
Format/Info : Advanced Video Codec
Format profile : High@L4
Format settings, CABAC : Yes
Format settings, ReFrames : 6 frames
Codec ID : avc1
Codec ID/Info : Advanced Video Coding
Duration : 23mn 36s
Bit rate : 1 776 Kbps
Maximum bit rate : 8 078 Kbps
Width : 1 280 pixels
Height : 720 pixels
Display aspect ratio : 16:9
Frame rate mode : Constant
Frame rate : 23.976 fps
Color space : YUV
Chroma subsampling : 4:2:0
Bit depth : 8 bits
Scan type : Progressive
Bits/(Pixel*Frame) : 0.080
Stream size : 299 MiB (90%)
Writing library : x264 core 120 r2120 0c7dab9
Encoding settings : cabac=1 / ref=6 / deblock=1:1:1 / analyse=0x3:0x113 / me=umh / subme=8 / psy=1 / psy_rd=0.40:0.00 / mixed_ref=1 / me_range=16 / chroma_me=1 / trellis=1 / 8x8dct=1 / cqm=0 / deadzone=21,11 / fast_pskip=1 / chroma_qp_offset=-2 / threads=4 / sliced_threads=0 / nr=0 / decimate=1 / interlaced=0 / bluray_compat=0 / constrained_intra=0 / bframes=3 / b_pyramid=2 / b_adapt=2 / b_bias=0 / direct=3 / weightb=1 / open_gop=0 / weightp=2 / keyint=250 / keyint_min=23 / scenecut=40 / intra_refresh=0 / rc_lookahead=50 / rc=2pass / mbtree=1 / bitrate=1776 / ratetol=1.0 / qcomp=0.60 / qpmin=0 / qpmax=69 / qpstep=4 / cplxblur=20.0 / qblur=0.5 / vbv_maxrate=3552 / vbv_bufsize=8880 / nal_hrd=none / ip_ratio=1.40 / aq=1:0.60
Encoded date : UTC 2016-07-11 18:22:04
Tagged date : UTC 2016-07-11 18:22:08

Audio
ID : 2
Format : AAC
Format/Info : Advanced Audio Codec
Format profile : LC
Codec ID : 40
Duration : 23mn 35s
Bit rate mode : Variable
Bit rate : 192 Kbps
Maximum bit rate : 196 Kbps
Channel(s) : 2 channels
Channel positions : Front: L R
Sampling rate : 48.0 KHz
Compression mode : Lossy
Stream size : 32.4 MiB (10%)
Language : English
Encoded date : UTC 2016-07-11 18:22:07
Tagged date : UTC 2016-07-11 18:22:08


Описание: С начала времён во вселенной существовало пять миров, которые ни в коем случае ни должны были пересекаться. Но однажды откуда ни возьмись, начали появляется загадочные монстры «Уроборосы», ознаменовавшие Вселенское единение и конец всех миров Но вместе с новой угрозой появились и девы спасительницы – Судьбонносницы и Доминанты, которых во имя спасения всех пяти миров собрали на острове в Голубом мире – Земле. И хоть все девушки обладают огромной силой, но многим из них предстоит преодолеть ещё очень долгий путь прежде, чем стать настоящими спасительницами пяти миров.
info [Профиль]  [ЛС] 
Показать сообщения:    
Ответить на тему

Текущее время: 11-Дек 14:05

Часовой пояс: GMT + 4



Вы не можете начинать темы
Вы не можете отвечать на сообщения
Вы не можете редактировать свои сообщения
Вы не можете удалять свои сообщения
Вы не можете голосовать в опросах
Вы не можете прикреплять файлы к сообщениям
Вы не можете скачивать файлы