Ошибка

Берсерк ТВ-2 / Berserk TV-2 (TV) [1-12 из 12] [2016] [Приключения, фэнтези, драма] [HDTV720p] [Любительская]

Ответить на тему
 
Автор Сообщение

Chel90RUS

Пол: Пол:Муж

Стаж: 5 лет 5 месяцев

Сообщений: 413

Россия
Рейтинг

post 05-Окт-2016 18:31 0[+]

[Цитировать] 

pic="http://s020.radikal.ru/i702/1610/c4/801bc32d67d0.jpg"
Берсерк ТВ-2
Berserk / ベルセルク

Год выпуска: 2016
Жанр: Приключения, фэнтези, драма
Страна: Япония
Тип: HDTV
Продолжительность: 12 серий ~ 25 мин
Дата выпуска: c 01.07.2016 по 16.09.2016
Режиссер: Итагаки Син
Автор оригинала / Сценарист: Миура Кэнтаро
Студия: Liden Films
Озвучено: JAM, Trina_D
Перевод: Аня
Тайминг и работа со звуком: Noah
Формат файла: Mp4
Аудио: AAC 48000Hz stereo 192kbps [A: English [eng] (aac lc, 48000 Hz, stereo, 192 kb/s)]
Видео: MPEG4 Video (H264) 1280x720 23.976fps 4980kbps [V: 264 (h264 high L4.1, yuv420p, 1280x720, 4980 kb/s)]

General
Complete name : \[AniDub]_Berserk_TV-2_[01]_[720p_x264_Aac]_[JAM_Trina_D].mp4
Format : MPEG-4
Format profile : Base Media
Codec ID : isom
File size : 905 MiB
Duration : 24mn 26s
Overall bit rate mode : Variable
Overall bit rate : 5 177 Kbps
Encoded date : UTC 2016-07-03 17:45:19
Tagged date : UTC 2016-07-03 17:45:19
Writing application : Yamb 2.1.0.0
Video
ID : 1
Format : AVC
Format/Info : Advanced Video Codec
Format profile : High@L4.1
Format settings, CABAC : Yes
Format settings, ReFrames : 4 frames
Codec ID : avc1
Codec ID/Info : Advanced Video Coding
Duration : 24mn 26s
Bit rate : 4 981 Kbps
Maximum bit rate : 13.1 Mbps
Width : 1 280 pixels
Height : 720 pixels
Display aspect ratio : 16:9
Frame rate mode : Constant
Frame rate : 23.976 fps
Color space : YUV
Chroma subsampling : 4:2:0
Bit depth : 8 bits
Scan type : Progressive
Bits/(Pixel*Frame) : 0.225
Stream size : 871 MiB (96%)
Title : 264
Writing library : x264 core 129 r2245+729M 1a52e03
Encoding settings : cabac=1 / ref=4 / deblock=1:1:-1 / analyse=0x3:0x113 / me=umh / subme=9 / psy=1 / fade_compensate=0.00 / psy_rd=1.00:0.00 / mixed_ref=1 / me_range=24 / chroma_me=1 / trellis=2 / 8x8dct=1 / cqm=0 / deadzone=21,11 / fast_pskip=1 / chroma_qp_offset=-2 / threads=8 / lookahead_threads=1 / sliced_threads=0 / nr=0 / decimate=1 / interlaced=0 / bluray_compat=0 / constrained_intra=0 / fgo=0 / bframes=9 / b_pyramid=2 / b_adapt=2 / b_bias=0 / direct=1 / weightb=1 / open_gop=0 / weightp=2 / keyint=240 / keyint_min=24 / scenecut=40 / intra_refresh=0 / rc=crf / mbtree=0 / crf=16.5 / qcomp=0.72 / qpmin=0 / qpmax=69 / qpstep=4 / ip_ratio=1.40 / pb_ratio=1.30 / aq=1:0.85
Encoded date : UTC 2016-07-01 21:04:05
Tagged date : UTC 2016-07-03 17:48:31
Color range : Limited
Color primaries : BT.709
Transfer characteristics : BT.709
Matrix coefficients : BT.709

Audio
ID : 2
Format : AAC
Format/Info : Advanced Audio Codec
Format profile : LC
Codec ID : 40
Duration : 24mn 26s
Bit rate mode : Variable
Bit rate : 192 Kbps
Maximum bit rate : 200 Kbps
Channel(s) : 2 channels
Channel positions : Front: L R
Sampling rate : 48.0 KHz
Compression mode : Lossy
Stream size : 33.6 MiB (4%)
Language : English
Encoded date : UTC 2016-07-03 17:48:28
Tagged date : UTC 2016-07-03 17:48:31


Описание: Гатс, также известный как Чёрный Мечник, ищет убежища от демонических сил, преследующих его и его женщину, а также отмщения мужчине, заклеймившему его «нечистой жертвой». Поддерживаемый только своей титанической силой, умениями и мечом, Гатс вынужден бороться со своей мрачной судьбой, всё время сражаясь с яростью, способной лишить его человечности.


ВОЗРАСТНОЕ ОГРАНИЧЕНИЕ 18+
Продолжение в апреле 2017 года.
info [Профиль]  [ЛС] 

mill925

Пол: Пол:Муж

Стаж: 7 лет 5 месяцев

Сообщений: 68

СССР
Рейтинг

post 05-Окт-2016 22:58 (спустя 4 часа) [-]-1[+]

[Цитировать] 

Из описания не совсем ясно, озвучка английская? "Аудио: AAC 48000Hz stereo 192kbps [A: English [eng]"
info [Профиль]  [ЛС] 

Greyf24

Стаж: 2 года

Сообщений: 349

Предупреждений: 2

Зимбабве
Рейтинг

post 05-Окт-2016 23:03 (спустя 5 минут) [-]1[+]

[Цитировать] 

о дааааааааааааааааааааа!

Наконец-то дело сдвинулось! Так, глядишь, и всю мангу экранизуют ))
info [Профиль]  [ЛС] 

Inqq

Пол: Пол:Муж

Стаж: 6 лет 9 месяцев

Сообщений: 197

Рейтинг

post 06-Окт-2016 00:03 (спустя 59 минут) [-]0[+]

[Цитировать] 

Цензура есть?
info [Профиль]  [ЛС] 

Chel90RUS

Пол: Пол:Муж

Стаж: 5 лет 5 месяцев

Сообщений: 413

Россия
Рейтинг

post 06-Окт-2016 00:22 (спустя 19 минут) [-]0[+]

[Цитировать] 

mill925 писал(а):

Из описания не совсем ясно, озвучка английская? "Аудио: AAC 48000Hz stereo 192kbps [A: English [eng]"
Русская

Inqq писал(а):

Цензура есть?
Небольшая

_________________
info [Профиль]  [ЛС] 

Animaniac

Стаж: 4 года 6 месяцев

Сообщений: 33

Украина
Рейтинг

post 06-Окт-2016 01:52 (спустя 1 час 29 минут) [-]0[+]

[Цитировать] 

А подскажите пожалуйста, где можно найти начало этой эпопеи и существует ли видео без цензуры? А то впечатление как-то неполное =\ Сам сериал - агонь! =))

_________________
Всем мир ! = )
info [Профиль]  [ЛС] 

Nikohorse

Стаж: 3 года 3 месяца

Сообщений: 127

Рейтинг

post 06-Окт-2016 03:06 (спустя 1 час 14 минут) [-]-1[+]

[Цитировать] 

Подскажите, это нормальное продолжение эпопеи с отрядом Сокола? Я помню сериал, где вызвали демонов и командир Гриффит стал главным из них. Продолжение или ремейк, или....?

_________________
info [Профиль]  [ЛС] 

putnik88

Стаж: 5 лет 4 месяца

Сообщений: 29

Сомали
Рейтинг

post 06-Окт-2016 09:58 (спустя 6 часов) [-]1[+]

[Цитировать] 

Nikohorse писал(а):

Подскажите, это нормальное продолжение эпопеи с отрядом Сокола? Я помню сериал, где вызвали демонов и командир Гриффит стал главным из них. Продолжение или ремейк, или....?
Продолжение.
info [Профиль]  [ЛС] 

Inqq

Пол: Пол:Муж

Стаж: 6 лет 9 месяцев

Сообщений: 197

Рейтинг

post 06-Окт-2016 22:31 (спустя 12 часов) [-]0[+]

[Цитировать] 

Animaniac писал(а):

А подскажите пожалуйста, где можно найти начало этой эпопеи и существует ли видео без цензуры? А то впечатление как-то неполное =\ Сам сериал - агонь! =))
Качай - Берсерк. Золотой век. Там три фильма.
Никакой цензуры, никаких соплей, никаких хеппи эндов)
info [Профиль]  [ЛС] 

vi5tutby

Пол: Пол:Муж

Стаж: 3 года 11 месяцев

Сообщений: 15

Белоруссия
Рейтинг

post 08-Дек-2016 21:18 (спустя 2 месяца 1 день) [-]0[+]

[Цитировать] 

Хороший сериал. Кому полнометражная трилогия понравилась, то и это понравиться.
info [Профиль]  [ЛС] 
Показать сообщения:    
Ответить на тему

Текущее время: 08-Дек 22:06

Часовой пояс: GMT + 4



Вы не можете начинать темы
Вы не можете отвечать на сообщения
Вы не можете редактировать свои сообщения
Вы не можете удалять свои сообщения
Вы не можете голосовать в опросах
Вы не можете прикреплять файлы к сообщениям
Вы не можете скачивать файлы