Ошибка

До окончания фрилича осталось:


Крестный отец: Трилогия / The Godfather Collection: The Coppola Restoration (Френсис Форд Коппола) [1972-1990, США, драма, криминал, BDRemux 1080p]

Ответить на тему
 
Автор Сообщение

Kapolone

Пол: Пол:Муж

Стаж: 3 года 10 месяцев

Сообщений: 129

Канада
Рейтинг

post 04-Окт-2016 13:49 6[+]

[Цитировать] 

Крестный отец: Трилогия / The Godfather Collection
«Настоящая сила не может быть дана, она может быть взята...»
pic="http://i85.fastpic.ru/big/2016/1004/92/d1212ac16879d0823b2ea1c31ab0d292.jpg"
Крестный отец / The Godfather

«Настоящая сила не может быть дана, она может быть взята...»

Страна: США
Жанр: драма, криминал
Год выпуска: 1972
Продолжительность:02:57:09
Перевод: Профессиональный (полное дублирование) + Профессиональный (Многоголосый закадровый) + Профессиональный (Двухголосый закадровый) + Профессиональный (Одноголосый закадровый)
Оригинальная дорожка: английский
Субтитры: Русские, Английские
Режиссер: Френсис Форд Коппола
В ролях: Марлон Брандо, Аль Пачино, Джеймс Каан, Ричард С. Кастеллано, Роберт Дюваль, Стерлинг Хейден, Джон Марли, Ричард Конте, Аль Леттьери, Дайан Китон, Абе Выгода, Талия Шайр, Джанни Руссо, Джон Казале, Руди Бонд, Аль Мартино, Моргана Кинг, Ленни Монтана, Джон Мартино, Сальваторе Корситто, Ричард Брайт
Описание:
Криминальная сага, повествующая о нью-йоркской сицилийской мафиозной семье Корлеоне. Фильм охватывает период 1945-1955 годов.

Глава семьи, Дон Вито Корлеоне, выдаёт замуж свою дочь. В это время со Второй мировой войны возвращается его любимый сын Майкл. Майкл, герой войны, гордость семьи, не выражает желания заняться жестоким семейным бизнесом. Дон Корлеоне ведёт дела по старым правилам, но наступают иные времена, и появляются люди, желающие изменить сложившиеся порядки. На Дона Корлеоне совершается покушение.



Качество: BDRemux 1080p
Формат: BDMV
Видео кодек: MPEG-4 AVC
Аудио кодек: DTS-HD MA, TrueHD, AC3
Видео: 1920x1080 at 23.976 fps, MPEG-4 AVC, ~27007 kbps avg
Аудио#1: Russian: 48 kHz, AC3, 3/2 (L,C,R,l,r) + LFE ch, ~384.00 kbps avg |Дубляж, iTunes|
Аудио#2: Russian: 48 kHz/24-bit, DTS-HD MA 5.1, ~3978.00 kbps avg |Многоголосый закадровый, Карусель/Киномания|
Аудио#3: Russian: 48 kHz, AC3, 3/2 (L,C,R,l,r) + LFE ch, ~448.00 kbps avg |Многоголосый закадровый, R5|
Аудио#4: Russian: 48 kHz, AC3, 3/2 (L,C,R,l,r) + LFE ch, ~448.00 kbps avg |Многоголосый закадровый, Кравец|
Аудио#5: Russian: 48 kHz, AC3, 3/2 (L,C,R,l,r) + LFE ch, ~448.00 kbps avg |Многоголосый закадровый, Медиакомплекс|
Аудио#6: Russian: 48 kHz, AC3, 3/2 (L,C,R,l,r) + LFE ch, ~448.00 kbps avg |Многоголосый закадровый, С.Р.И.|
Аудио#7: Russian: 48 kHz, AC3, 3/2 (L,C,R,l,r) + LFE ch, ~384.00 kbps avg |Многоголосый закадровый, Позитив-Мультимедиа|
Аудио#8: Russian: 48 kHz, AC3, 2/0 (L,R) ch, ~192.00 kbps avg |Многоголосый закадровый, ОРТ|
Аудио#9: Russian: 48 kHz, AC3, 2/0 (L,R) ch, ~192.00 kbps avg |Многоголосый закадровый, Первый канал|
Аудио#10: Russian: 48 kHz, AC3, 2/0 (L,R) ch, ~192.00 kbps avg |Многоголосый закадровый, ТВ-Центр|
Аудио#11: Russian: 48 kHz, AC3, 3/2 (L,C,R,l,r) + LFE ch, ~448.00 kbps avg |Двухголосый закадровый|
Аудио#12: Russian: 48 kHz, AC3, 2/0 (L,R) ch, ~192.00 kbps avg |Двухголосый закадровый, Премьер Видео Фильм|
Аудио#13: Russian: 48 kHz/24-bit, DTS-HD MA 5.1, ~3957.00 kbps avg |Одноголосый закадровый, А.Михалев|
Аудио#14: Russian: 48 kHz/24-bit, DTS-HD MA 5.1, ~3963.00 kbps avg |Одноголосый закадровый, Г.Либергал|
Аудио#15: Russian: 48 kHz/24-bit, DTS-HD MA 5.1, ~3979.00 kbps avg |Одноголосый закадровый, Ю.Сербин|
Аудио#16: Russian: 48 kHz/24-bit, DTS-HD MA 5.1, ~3963.00 kbps avg |Одноголосый закадровый, Ю.Живов|
Аудио#17: Russian: 48 kHz, AC3, 3/2 (L,C,R,l,r) + LFE ch, ~448.00 kbps avg |Одноголосый закадровый, К.Филонов|
Аудио#18: Russian: 48 kHz, AC3, 2/0 (L,R) ch, ~192.00 kbps avg |Одноголосый закадровый, Л.Володарский|
Аудио#19: Ukrainian: 48 kHz, AC3, 2/0 (L,R) ch, ~192.00 kbps avg |Многоголосый закадровый, ТакТребаПродакшн|
Аудио#20: Ukrainian: 48 kHz, AC3, 2/0 (L,R) ch, ~192.00 kbps avg |Двухголосый закадровый, 1+1|
Аудио#21: English: 48 kHz/24-bit, Dolby TrueHD 5.1, ~3557.00 kbps avg
Аудио#22: English: 48 kHz, AC3, 2/0 (L,R) ch, ~192.00 kbps avg |Commentary by Francis Ford Coppola|

DISC INFO:

Disc Title: THE_GODFATHER_PART_I_REMUX_HDCLUB
Disc Size: 82 035 174 572 bytes
Protection: AACS
BD-Java: No
BDInfo: 0.5.8

PLAYLIST REPORT:

Name: 00000.MPLS
Length: 2:57:09.216 (h:m:s.ms)
Size: 82 035 007 488 bytes
Total Bitrate: 61,74 Mbps

VIDEO:

Codec Bitrate Description
----- ------- -----------
MPEG-4 AVC Video 27007 kbps 1080p / 23,976 fps / 16:9 / High Profile 4.1

AUDIO:

Codec Language Bitrate Description
----- -------- ------- -----------
Dolby Digital Audio Russian 384 kbps 5.1 / 48 kHz / 384 kbps / DN -4dB
DTS-HD Master Audio Russian 3978 kbps 5.1 / 48 kHz / 3978 kbps / 24-bit (DTS Core: 5.1 / 48 kHz / 1509 kbps / 24-bit)
Dolby Digital Audio Russian 448 kbps 5.1 / 48 kHz / 448 kbps / DN -4dB
Dolby Digital Audio Russian 448 kbps 5.1 / 48 kHz / 448 kbps
Dolby Digital Audio Russian 448 kbps 5.1 / 48 kHz / 448 kbps / DN -4dB
Dolby Digital Audio Russian 448 kbps 5.1 / 48 kHz / 448 kbps
Dolby Digital Audio Russian 384 kbps 5.1 / 48 kHz / 384 kbps / DN -4dB
Dolby Digital Audio Russian 192 kbps 2.0 / 48 kHz / 192 kbps / DN -4dB
Dolby Digital Audio Russian 192 kbps 2.0 / 48 kHz / 192 kbps
Dolby Digital Audio Russian 192 kbps 2.0 / 48 kHz / 192 kbps / DN -4dB
Dolby Digital Audio Russian 448 kbps 5.1 / 48 kHz / 448 kbps / DN -4dB
Dolby Digital Audio Russian 192 kbps 2.0 / 48 kHz / 192 kbps / DN -4dB
DTS-HD Master Audio Russian 3957 kbps 5.1 / 48 kHz / 3957 kbps / 24-bit (DTS Core: 5.1 / 48 kHz / 1509 kbps / 24-bit)
DTS-HD Master Audio Russian 3963 kbps 5.1 / 48 kHz / 3963 kbps / 24-bit (DTS Core: 5.1 / 48 kHz / 1509 kbps / 24-bit)
DTS-HD Master Audio Russian 3979 kbps 5.1 / 48 kHz / 3979 kbps / 24-bit (DTS Core: 5.1 / 48 kHz / 1509 kbps / 24-bit)
DTS-HD Master Audio Russian 3963 kbps 5.1 / 48 kHz / 3963 kbps / 24-bit (DTS Core: 5.1 / 48 kHz / 1509 kbps / 24-bit)
Dolby Digital Audio Russian 448 kbps 5.1 / 48 kHz / 448 kbps / DN -4dB
Dolby Digital Audio Russian 192 kbps 2.0 / 48 kHz / 192 kbps / DN -4dB
Dolby Digital Audio Ukrainian 192 kbps 2.0 / 48 kHz / 192 kbps / DN -4dB
Dolby Digital Audio Ukrainian 192 kbps 2.0 / 48 kHz / 192 kbps / DN -4dB
Dolby TrueHD Audio English 3557 kbps 5.1 / 48 kHz / 3557 kbps / 24-bit (AC3 Embedded: 5.1 / 48 kHz / 640 kbps / DN -4dB)
Dolby Digital Audio English 192 kbps 2.0 / 48 kHz / 192 kbps / DN -4dB / Dolby Surround

SUBTITLES:

Codec Language Bitrate Description
----- -------- ------- -----------
Presentation Graphics Russian 1,069 kbps
Presentation Graphics Russian 19,649 kbps
Presentation Graphics Russian 24,775 kbps
Presentation Graphics Russian 17,587 kbps
Presentation Graphics Russian 21,180 kbps
Presentation Graphics English 34,114 kbps
Presentation Graphics English 37,380 kbps
Presentation Graphics English 1,368 kbps

FILES:

Name Time In Length Size Total Bitrate
---- ------- ------ ---- -------------
00000.M2TS 0:00:00.000 2:57:09.216 82 035 007 488 61 744

CHAPTERS:

Number Time In Length Avg Video Rate Max 1-Sec Rate Max 1-Sec Time Max 5-Sec Rate Max 5-Sec Time Max 10Sec Rate Max 10Sec Time Avg Frame Size Max Frame Size Max Frame Time
------ ------- ------ -------------- -------------- -------------- -------------- -------------- -------------- -------------- -------------- -------------- --------------
1 0:00:00.000 0:07:30.782 23 989 kbps 38 369 kbps 00:06:55.665 36 084 kbps 00:06:52.829 35 496 kbps 00:06:48.366 125 058 bytes 351 823 bytes 00:07:30.783
2 0:07:30.782 0:10:32.841 28 895 kbps 43 620 kbps 00:08:27.089 37 892 kbps 00:08:23.085 37 717 kbps 00:08:18.122 150 645 bytes 484 143 bytes 00:08:27.840
3 0:18:03.624 0:08:59.827 27 936 kbps 49 463 kbps 00:27:00.285 38 517 kbps 00:26:56.239 37 472 kbps 00:18:46.917 145 645 bytes 623 507 bytes 00:27:00.910
4 0:27:03.451 0:07:16.730 27 592 kbps 38 910 kbps 00:27:05.915 37 576 kbps 00:27:15.717 37 490 kbps 00:27:05.915 143 850 bytes 349 627 bytes 00:30:10.892
5 0:34:20.181 0:05:57.567 27 387 kbps 34 937 kbps 00:37:33.292 33 013 kbps 00:37:20.071 32 729 kbps 00:37:16.275 142 783 bytes 315 754 bytes 00:36:45.286
6 0:40:17.748 0:08:34.556 27 496 kbps 37 944 kbps 00:41:49.381 36 805 kbps 00:41:45.461 36 595 kbps 00:41:40.289 143 350 bytes 320 794 bytes 00:46:56.855
7 0:48:52.304 0:09:26.023 26 447 kbps 38 090 kbps 00:57:45.336 37 596 kbps 00:57:41.332 35 816 kbps 00:57:14.722 137 882 bytes 310 369 bytes 00:54:37.482
8 0:58:18.327 0:10:26.251 28 053 kbps 38 446 kbps 01:05:57.453 37 586 kbps 01:05:57.453 37 461 kbps 01:06:04.335 146 257 bytes 363 366 bytes 01:05:54.075
9 1:08:44.578 0:07:04.424 26 752 kbps 36 647 kbps 01:13:20.604 34 025 kbps 01:14:56.617 33 463 kbps 01:14:52.613 139 474 bytes 298 489 bytes 01:14:41.643
10 1:15:49.002 0:14:11.683 27 235 kbps 39 091 kbps 01:21:27.215 36 101 kbps 01:21:19.708 35 510 kbps 01:21:18.498 141 992 bytes 341 085 bytes 01:18:43.343
11 1:30:00.685 0:07:06.176 26 462 kbps 39 887 kbps 01:31:07.962 37 692 kbps 01:31:04.208 36 128 kbps 01:31:14.969 137 963 bytes 338 660 bytes 01:31:16.762
12 1:37:06.862 0:09:11.300 28 162 kbps 39 580 kbps 01:39:53.153 37 707 kbps 01:39:46.980 37 538 kbps 01:39:53.195 146 825 bytes 432 802 bytes 01:39:48.023
13 1:46:18.162 0:03:12.025 28 124 kbps 38 870 kbps 01:49:29.187 37 681 kbps 01:49:25.183 36 998 kbps 01:49:20.178 146 626 bytes 390 851 bytes 01:49:30.188
14 1:49:30.188 0:04:27.474 26 211 kbps 35 935 kbps 01:50:14.190 34 737 kbps 01:49:58.508 33 735 kbps 01:49:54.838 136 651 bytes 442 930 bytes 01:50:29.164
15 1:53:57.662 0:09:23.648 26 852 kbps 37 194 kbps 01:55:30.381 34 573 kbps 01:55:29.881 33 971 kbps 01:55:29.797 139 994 bytes 337 823 bytes 01:56:43.413
16 2:03:21.310 0:03:15.945 30 076 kbps 39 475 kbps 02:03:39.495 37 785 kbps 02:03:35.491 37 100 kbps 02:03:30.528 156 805 bytes 447 147 bytes 02:06:13.816
17 2:06:37.256 0:06:50.869 27 248 kbps 37 656 kbps 02:06:42.553 35 275 kbps 02:06:40.217 31 611 kbps 02:06:38.757 142 060 bytes 355 707 bytes 02:13:28.125
18 2:13:28.125 0:06:19.334 27 421 kbps 38 452 kbps 02:13:42.472 37 758 kbps 02:13:43.682 37 195 kbps 02:13:40.762 142 961 bytes 376 847 bytes 02:14:11.918
19 2:19:47.459 0:06:09.246 30 199 kbps 39 217 kbps 02:23:07.120 37 496 kbps 02:19:48.087 37 395 kbps 02:19:48.004 157 445 bytes 340 091 bytes 02:25:56.706
20 2:25:56.706 0:10:59.325 26 520 kbps 38 886 kbps 02:32:41.944 37 616 kbps 02:32:47.950 37 485 kbps 02:32:51.495 138 265 bytes 452 639 bytes 02:32:48.284
21 2:36:56.031 0:07:47.509 27 997 kbps 38 077 kbps 02:38:13.066 36 569 kbps 02:41:05.864 35 621 kbps 02:44:14.386 145 979 bytes 357 143 bytes 02:41:57.874
22 2:44:43.540 0:08:22.209 25 906 kbps 39 461 kbps 02:48:29.807 37 460 kbps 02:48:25.929 36 775 kbps 02:48:26.179 135 061 bytes 403 235 bytes 02:49:07.845
23 2:53:05.750 0:04:03.466 13 260 kbps 40 802 kbps 02:57:04.947 38 175 kbps 02:57:00.943 34 013 kbps 02:54:53.274 69 172 bytes 372 376 bytes 02:57:05.156

STREAM DIAGNOSTICS:

File PID Type Codec Language Seconds Bitrate Bytes Packets
---- --- ---- ----- -------- -------------- -------------- ------------- -----
00000.M2TS 4113 (0x1011) 0x1B AVC 10629,035 27 008 35 882 994 048 195 166 898
00000.M2TS 4352 (0x1100) 0x81 AC3 rus (Russian) 10629,035 384 510 196 224 2 989 431
00000.M2TS 4353 (0x1101) 0x86 DTS-HD MA rus (Russian) 10629,035 3 978 5 285 168 460 30 383 035
00000.M2TS 4354 (0x1102) 0x81 AC3 rus (Russian) 10629,035 448 594 657 280 3 318 400
00000.M2TS 4355 (0x1103) 0x81 AC3 rus (Russian) 10629,035 448 595 237 888 3 321 640
00000.M2TS 4356 (0x1104) 0x81 AC3 rus (Russian) 10629,035 448 595 230 720 3 321 600
00000.M2TS 4357 (0x1105) 0x81 AC3 rus (Russian) 10629,035 448 595 230 720 3 321 600
00000.M2TS 4358 (0x1106) 0x81 AC3 rus (Russian) 10629,035 381 506 082 816 2 965 329
00000.M2TS 4359 (0x1107) 0x81 AC3 rus (Russian) 10629,035 192 255 098 880 1 660 800
00000.M2TS 4360 (0x1108) 0x81 AC3 rus (Russian) 10629,035 192 255 100 416 1 660 810
00000.M2TS 4361 (0x1109) 0x81 AC3 rus (Russian) 10629,035 192 255 097 639 1 660 792
00000.M2TS 4362 (0x110A) 0x81 AC3 rus (Russian) 10629,035 448 595 234 304 3 321 620
00000.M2TS 4363 (0x110B) 0x81 AC3 rus (Russian) 10629,035 192 255 098 880 1 660 800
00000.M2TS 4364 (0x110C) 0x86 DTS-HD MA rus (Russian) 10629,035 3 957 5 256 795 824 30 229 591
00000.M2TS 4365 (0x110D) 0x86 DTS-HD MA rus (Russian) 10629,035 3 963 5 265 184 632 30 274 807
00000.M2TS 4366 (0x110E) 0x86 DTS-HD MA rus (Russian) 10629,035 3 979 5 286 809 308 30 392 972
00000.M2TS 4367 (0x110F) 0x86 DTS-HD MA rus (Russian) 10629,035 3 963 5 265 580 764 30 277 081
00000.M2TS 4368 (0x1110) 0x81 AC3 rus (Russian) 10629,035 448 595 230 636 3 321 600
00000.M2TS 4369 (0x1111) 0x81 AC3 rus (Russian) 10629,035 192 255 097 639 1 660 792
00000.M2TS 4370 (0x1112) 0x81 AC3 ukr (Ukrainian) 10629,035 192 255 098 880 1 660 800
00000.M2TS 4371 (0x1113) 0x81 AC3 ukr (Ukrainian) 10629,035 192 255 096 576 1 660 785
00000.M2TS 4372 (0x1114) 0x83 TrueHD eng (English) 10629,035 4 197 5 576 393 078 39 840 235
00000.M2TS 4373 (0x1115) 0x81 AC3 eng (English) 10629,035 192 255 098 880 1 660 800
00000.M2TS 4608 (0x1200) 0x90 PGS rus (Russian) 10629,035 1 1 420 944 8 414
00000.M2TS 4609 (0x1201) 0x90 PGS rus (Russian) 10629,035 20 26 106 625 150 951
00000.M2TS 4610 (0x1202) 0x90 PGS rus (Russian) 10629,035 25 32 916 907 191 153
00000.M2TS 4611 (0x1203) 0x90 PGS rus (Russian) 10629,035 18 23 366 795 135 972
00000.M2TS 4612 (0x1204) 0x90 PGS rus (Russian) 10629,035 21 28 140 399 165 159
00000.M2TS 4613 (0x1205) 0x90 PGS eng (English) 10629,035 34 45 324 957 255 481
00000.M2TS 4614 (0x1206) 0x90 PGS eng (English) 10629,035 37 49 664 294 280 360
00000.M2TS 4615 (0x1207) 0x90 PGS eng (English) 10629,035 1 1 817 180 10 396
Крестный отец 2 / The Godfather: Part II

«Сага продолжается»

Страна: США
Жанр:драма, криминал
Год выпуска: 1974
Продолжительность:03:22:06
Перевод: Профессиональный (полное дублирование) + Профессиональный (Многоголосый закадровый) + Профессиональный (Двухголосый закадровый) + Профессиональный (Одноголосый закадровый)
Оригинальная дорожка: английский
Субтитры: Русские, Английские
Режиссер: Френсис Форд Коппола
В ролях: Аль Пачино, Роберт Дюваль, Дайан Китон, Роберт Де Ниро, Джон Казале, Талия Шайр, Ли Страсберг, Майкл В. Гаццо, Г.Д. Спрэдлин, Ричард Брайт, Гастон Москин, Том Роски, Бруно Кирби, Фрэнк Сиверо, Франческа Де Сапио, Моргана Кинг, Марианна Хилл, Леопольдо Триесте, Доминик Чианиз, Америго Тот, Трой Донахью
Описание:
В центре драмы представители нового поколения гангстерского клана — дона Корлеоне и его сына, для которых не существует моральных преград на пути достижения поставленых целей. Они превращают мафию, построенную по патриархальным, еще сицилийским законам, в весьма прагматичную, жесткую корпорацию, плавно интегрирующуюся в большой бизнес Америки.


Качество: BDRemux 1080p
Формат: BDMV
Видео кодек: MPEG-4 AVC
Аудио кодек: DTS-HD MA, TrueHD, AC3
Видео: 1920x1080 at 23.976 fps, MPEG-4 AVC, ~22643 kbps avg
Аудио#1: Russian: 48 kHz, AC3, 3/2 (L,C,R,l,r) + LFE ch, ~384.00 kbps avg |Дубляж, iTunes|
Аудио#2: Russian: 48 kHz/24-bit, DTS-HD MA 5.1, ~3989.00 kbps avg |Многоголосый закадровый, Карусель/Киномания|
Аудио#3: Russian: 48 kHz, AC3, 3/2 (L,C,R,l,r) + LFE ch, ~448.00 kbps avg |Многоголосый закадровый, R5|
Аудио#4: Russian: 48 kHz, AC3, 3/2 (L,C,R,l,r) + LFE ch, ~448.00 kbps avg |Многоголосый закадровый, Кравец|
Аудио#5: Russian: 48 kHz, AC3, 3/2 (L,C,R,l,r) + LFE ch, ~448.00 kbps avg |Многоголосый закадровый, Медиакомплекс|
Аудио#6: Russian: 48 kHz, AC3, 3/2 (L,C,R,l,r) + LFE ch, ~448.00 kbps avg |Многоголосый закадровый, С.Р.И.|
Аудио#7: Russian: 48 kHz, AC3, 2/0 (L,R) ch, ~192.00 kbps avg |Многоголосый закадровый, ОРТ|
Аудио#8: Russian: 48 kHz, AC3, 3/2 (L,C,R,l,r) + LFE ch, ~448.00 kbps avg |Двухголосый закадровый|
Аудио#9: Russian: 48 kHz, AC3, 2/0 (L,R) ch, ~192.00 kbps avg |Двухголосый закадровый, Премьер Видео Фильм|
Аудио#10: Russian: 48 kHz/24-bit, DTS-HD MA 5.1, ~3968.00 kbps avg |Одноголосый закадровый, А.Михалев|
Аудио#11: Russian: 48 kHz/24-bit, DTS-HD MA 5.1, ~3966.00 kbps avg |Одноголосый закадровый, Г.Либергал|
Аудио#12: Russian: 48 kHz/24-bit, DTS-HD MA 5.1, ~3991.00 kbps avg |Одноголосый закадровый, Ю.Сербин|
Аудио#13: Russian: 48 kHz/24-bit, DTS-HD MA 5.1, ~3974.00 kbps avg |Одноголосый закадровый, Ю.Живов|
Аудио#14: Russian: 48 kHz, AC3, 2/0 (L,R) ch, ~192.00 kbps avg |Одноголосый закадровый, Л.Володарский|
Аудио#15: Ukrainian: 48 kHz, AC3, 2/0 (L,R) ch, ~192.00 kbps avg |Многоголосый закадровый, ТакТребаПродакшн|
Аудио#16: Ukrainian: 48 kHz, AC3, 2/0 (L,R) ch, ~192.00 kbps avg |Двухголосый закадровый, 1+1|
Аудио#17: English: 48 kHz/24-bit, Dolby TrueHD 5.1, ~3592.00 kbps avg
Аудио#18: English: 48 kHz, AC3, 2/0 (L,R) ch, ~192.00 kbps avg |Commentary by Francis Ford Coppola|

DISC INFO:

Disc Title: THE_GODFATHER_PART_II_REMUX_HDCLUB
Disc Size: 84 526 356 712 bytes
Protection: AACS
BD-Java: No
BDInfo: 0.5.8

PLAYLIST REPORT:

Name: 00000.MPLS
Length: 3:22:36.928 (h:m:s.ms)
Size: 84 526 172 160 bytes
Total Bitrate: 55,62 Mbps

VIDEO:

Codec Bitrate Description
----- ------- -----------
MPEG-4 AVC Video 22643 kbps 1080p / 23,976 fps / 16:9 / High Profile 4.1

AUDIO:

Codec Language Bitrate Description
----- -------- ------- -----------
Dolby Digital Audio Russian 384 kbps 5.1 / 48 kHz / 384 kbps / DN -4dB
DTS-HD Master Audio Russian 3989 kbps 5.1 / 48 kHz / 3989 kbps / 24-bit (DTS Core: 5.1 / 48 kHz / 1509 kbps / 24-bit)
Dolby Digital Audio Russian 448 kbps 5.1 / 48 kHz / 448 kbps
Dolby Digital Audio Russian 448 kbps 5.1 / 48 kHz / 448 kbps
Dolby Digital Audio Russian 448 kbps 5.1 / 48 kHz / 448 kbps / DN -4dB
Dolby Digital Audio Russian 448 kbps 5.1 / 48 kHz / 448 kbps
Dolby Digital Audio Russian 192 kbps 2.0 / 48 kHz / 192 kbps / DN -4dB
Dolby Digital Audio Russian 448 kbps 5.1 / 48 kHz / 448 kbps / DN -4dB
Dolby Digital Audio Russian 192 kbps 2.0 / 48 kHz / 192 kbps / DN -4dB
DTS-HD Master Audio Russian 3968 kbps 5.1 / 48 kHz / 3968 kbps / 24-bit (DTS Core: 5.1 / 48 kHz / 1509 kbps / 24-bit)
DTS-HD Master Audio Russian 3966 kbps 5.1 / 48 kHz / 3966 kbps / 24-bit (DTS Core: 5.1 / 48 kHz / 1509 kbps / 24-bit)
DTS-HD Master Audio Russian 3991 kbps 5.1 / 48 kHz / 3991 kbps / 24-bit (DTS Core: 5.1 / 48 kHz / 1509 kbps / 24-bit)
DTS-HD Master Audio Russian 3974 kbps 5.1 / 48 kHz / 3974 kbps / 24-bit (DTS Core: 5.1 / 48 kHz / 1509 kbps / 24-bit)
Dolby Digital Audio Russian 192 kbps 2.0 / 48 kHz / 192 kbps / DN -4dB
Dolby Digital Audio Ukrainian 192 kbps 2.0 / 48 kHz / 192 kbps / DN -4dB
Dolby Digital Audio Ukrainian 192 kbps 2.0 / 48 kHz / 192 kbps / DN -4dB
Dolby TrueHD Audio English 3592 kbps 5.1 / 48 kHz / 3592 kbps / 24-bit (AC3 Embedded: 5.1 / 48 kHz / 640 kbps / DN -4dB)
Dolby Digital Audio English 192 kbps 2.0 / 48 kHz / 192 kbps / DN -4dB / Dolby Surround

SUBTITLES:

Codec Language Bitrate Description
----- -------- ------- -----------
Presentation Graphics Russian 3,299 kbps
Presentation Graphics Russian 24,572 kbps
Presentation Graphics Russian 18,488 kbps
Presentation Graphics Russian 18,092 kbps
Presentation Graphics English 33,945 kbps
Presentation Graphics English 39,433 kbps
Presentation Graphics English 5,778 kbps

FILES:

Name Time In Length Size Total Bitrate
---- ------- ------ ---- -------------
00000.M2TS 0:00:00.000 3:22:36.928 84 526 172 160 55 764

CHAPTERS:

Number Time In Length Avg Video Rate Max 1-Sec Rate Max 1-Sec Time Max 5-Sec Rate Max 5-Sec Time Max 10Sec Rate Max 10Sec Time Avg Frame Size Max Frame Size Max Frame Time
------ ------- ------ -------------- -------------- -------------- -------------- -------------- -------------- -------------- -------------- -------------- --------------
1 0:00:00.000 0:03:40.426 21 862 kbps 34 445 kbps 00:02:09.712 29 967 kbps 00:02:16.928 29 669 kbps 00:02:16.928 113 957 bytes 384 922 bytes 00:02:05.208
2 0:03:40.426 0:03:49.313 24 423 kbps 36 528 kbps 00:05:25.325 31 368 kbps 00:05:38.838 31 047 kbps 00:05:33.249 127 330 bytes 384 117 bytes 00:03:59.239
3 0:07:29.740 0:04:35.023 24 474 kbps 32 936 kbps 00:11:21.889 31 400 kbps 00:11:02.453 29 816 kbps 00:11:02.411 127 598 bytes 292 758 bytes 00:12:04.765
4 0:12:04.763 0:04:13.419 21 826 kbps 29 803 kbps 00:16:09.134 28 836 kbps 00:16:09.426 27 623 kbps 00:16:04.421 113 791 bytes 380 973 bytes 00:12:30.541
5 0:16:18.183 0:11:19.931 22 492 kbps 36 241 kbps 00:20:34.191 34 939 kbps 00:20:30.187 32 184 kbps 00:20:25.557 117 264 bytes 361 329 bytes 00:20:15.339
6 0:27:38.114 0:06:50.076 22 526 kbps 27 836 kbps 00:28:27.872 26 229 kbps 00:28:27.872 25 077 kbps 00:27:38.948 117 443 bytes 257 981 bytes 00:28:30.959
7 0:34:28.190 0:09:16.514 22 508 kbps 31 060 kbps 00:43:34.987 28 632 kbps 00:43:34.987 28 156 kbps 00:38:10.871 117 345 bytes 267 899 bytes 00:35:50.314
8 0:43:44.704 0:05:47.806 23 520 kbps 28 459 kbps 00:45:46.410 27 864 kbps 00:45:44.825 27 276 kbps 00:45:44.825 122 622 bytes 279 516 bytes 00:43:51.712
9 0:49:32.510 0:10:17.574 22 972 kbps 28 193 kbps 00:56:13.870 27 256 kbps 00:56:12.744 26 877 kbps 00:56:12.744 119 765 bytes 326 933 bytes 00:58:49.776
10 0:59:50.085 0:13:01.948 22 117 kbps 27 048 kbps 01:01:15.004 26 266 kbps 01:05:28.299 25 946 kbps 01:08:14.131 115 308 bytes 344 894 bytes 01:00:31.544
11 1:12:52.033 0:04:21.554 22 507 kbps 27 990 kbps 01:12:54.495 25 774 kbps 01:15:21.767 25 613 kbps 01:15:00.996 117 339 bytes 322 886 bytes 01:16:38.176
12 1:17:13.587 0:09:05.293 22 497 kbps 26 832 kbps 01:24:46.080 25 954 kbps 01:24:42.118 25 544 kbps 01:24:37.739 117 289 bytes 365 562 bytes 01:17:24.389
13 1:26:18.881 0:21:03.344 22 815 kbps 30 683 kbps 01:35:43.529 30 338 kbps 01:35:40.860 30 126 kbps 01:35:40.776 118 945 bytes 315 691 bytes 01:29:12.555
14 1:47:22.225 0:02:54.717 21 469 kbps 29 336 kbps 01:47:22.227 27 527 kbps 01:47:22.227 27 131 kbps 01:47:22.227 111 931 bytes 249 681 bytes 01:47:35.490
15 1:50:16.943 0:05:15.481 23 801 kbps 33 205 kbps 01:51:23.218 26 773 kbps 01:51:01.654 26 350 kbps 01:51:14.250 124 086 bytes 299 499 bytes 01:55:32.425
16 1:55:32.425 0:11:18.259 21 827 kbps 31 126 kbps 02:05:15.966 29 941 kbps 02:05:18.093 29 208 kbps 02:05:15.341 113 796 bytes 307 723 bytes 01:58:58.756
17 2:06:50.685 0:06:21.799 22 829 kbps 29 238 kbps 02:10:00.250 28 317 kbps 02:09:56.246 28 154 kbps 02:09:51.241 119 019 bytes 340 229 bytes 02:06:54.690
18 2:13:12.484 0:07:37.998 22 501 kbps 26 811 kbps 02:19:01.583 25 627 kbps 02:19:45.960 25 313 kbps 02:19:55.178 117 308 bytes 241 163 bytes 02:20:20.036
19 2:20:50.483 0:07:39.208 22 502 kbps 27 409 kbps 02:22:37.632 25 679 kbps 02:26:54.764 24 773 kbps 02:27:07.193 117 313 bytes 254 412 bytes 02:21:09.794
20 2:28:29.691 0:05:06.264 21 430 kbps 25 442 kbps 02:31:26.368 24 315 kbps 02:31:22.364 24 120 kbps 02:31:17.359 111 728 bytes 246 046 bytes 02:33:32.202
21 2:33:35.956 0:04:21.052 23 745 kbps 27 325 kbps 02:34:27.508 26 435 kbps 02:34:23.545 25 453 kbps 02:34:23.420 123 798 bytes 252 652 bytes 02:37:51.879
22 2:37:57.009 0:06:11.495 22 497 kbps 27 846 kbps 02:38:04.141 26 896 kbps 02:38:55.400 26 252 kbps 02:38:53.231 117 287 bytes 288 285 bytes 02:38:42.179
23 2:44:08.504 0:06:59.876 22 713 kbps 29 944 kbps 02:49:43.256 27 979 kbps 02:50:00.440 27 170 kbps 02:49:57.061 118 416 bytes 267 044 bytes 02:51:08.383
24 2:51:08.381 0:05:38.337 22 543 kbps 27 660 kbps 02:55:51.290 26 431 kbps 02:55:49.580 26 181 kbps 02:55:44.992 117 531 bytes 309 989 bytes 02:51:12.387
25 2:56:46.718 0:04:46.160 21 787 kbps 27 202 kbps 03:00:37.952 26 186 kbps 03:00:37.910 25 977 kbps 03:00:37.910 113 587 bytes 254 518 bytes 02:56:56.731
26 3:01:32.879 0:03:47.518 23 667 kbps 28 617 kbps 03:02:40.074 27 836 kbps 03:02:41.950 27 627 kbps 03:02:38.989 123 391 bytes 237 140 bytes 03:01:48.897
27 3:05:20.397 0:02:05.461 24 501 kbps 26 963 kbps 03:06:46.403 25 883 kbps 03:06:44.735 25 448 kbps 03:06:43.400 127 737 bytes 268 413 bytes 03:05:34.373
28 3:07:25.859 0:04:35.650 23 296 kbps 29 484 kbps 03:10:46.476 27 624 kbps 03:11:07.247 27 542 kbps 03:11:00.657 121 437 bytes 269 213 bytes 03:09:59.387
29 3:12:01.510 0:04:55.458 21 827 kbps 26 760 kbps 03:14:25.528 25 493 kbps 03:14:23.109 24 776 kbps 03:13:55.790 113 813 bytes 255 292 bytes 03:14:38.708
30 3:16:56.968 0:05:39.959 20 407 kbps 50 644 kbps 03:22:01.734 39 820 kbps 03:21:57.730 31 798 kbps 03:20:08.412 116 918 bytes 609 827 bytes 03:22:02.276

STREAM DIAGNOSTICS:

File PID Type Codec Language Seconds Bitrate Bytes Packets
---- --- ---- ----- -------- -------------- -------------- ------------- -----
00000.M2TS 4113 (0x1011) 0x1B AVC 12126,281 22 643 34 322 489 869 186 704 821
00000.M2TS 4352 (0x1100) 0x81 AC3 rus (Russian) 12126,281 384 582 065 664 3 410 541
00000.M2TS 4353 (0x1101) 0x86 DTS-HD MA rus (Russian) 12126,281 3 989 6 046 905 224 34 750 923
00000.M2TS 4354 (0x1102) 0x81 AC3 rus (Russian) 12126,281 448 679 074 816 3 789 489
00000.M2TS 4355 (0x1103) 0x81 AC3 rus (Russian) 12126,281 448 679 074 816 3 789 480
00000.M2TS 4356 (0x1104) 0x81 AC3 rus (Russian) 12126,281 448 679 069 440 3 789 450
00000.M2TS 4357 (0x1105) 0x81 AC3 rus (Russian) 12126,281 448 679 076 608 3 789 490
00000.M2TS 4358 (0x1106) 0x81 AC3 rus (Russian) 12126,281 192 291 032 064 1 894 740
00000.M2TS 4359 (0x1107) 0x81 AC3 rus (Russian) 12126,281 449 680 789 760 3 799 050
00000.M2TS 4360 (0x1108) 0x81 AC3 rus (Russian) 12126,281 192 291 032 832 1 894 745
00000.M2TS 4361 (0x1109) 0x86 DTS-HD MA rus (Russian) 12126,281 3 968 6 014 051 484 34 572 433
00000.M2TS 4362 (0x110A) 0x86 DTS-HD MA rus (Russian) 12126,281 3 966 6 011 489 020 34 557 919
00000.M2TS 4363 (0x110B) 0x86 DTS-HD MA rus (Russian) 12126,281 3 991 6 049 276 308 34 767 426
00000.M2TS 4364 (0x110C) 0x86 DTS-HD MA rus (Russian) 12126,281 3 974 6 023 513 496 34 625 596
00000.M2TS 4365 (0x110D) 0x81 AC3 rus (Russian) 12126,281 192 291 032 832 1 894 745
00000.M2TS 4366 (0x110E) 0x81 AC3 ukr (Ukrainian) 12126,281 192 291 036 672 1 894 770
00000.M2TS 4367 (0x110F) 0x81 AC3 ukr (Ukrainian) 12126,281 192 291 032 832 1 894 745
00000.M2TS 4368 (0x1110) 0x83 TrueHD eng (English) 12126,281 4 232 6 415 200 926 44 939 862
00000.M2TS 4369 (0x1111) 0x81 AC3 eng (English) 12126,281 192 291 032 832 1 894 745
00000.M2TS 4608 (0x1200) 0x90 PGS rus (Russian) 12126,281 3 5 000 986 29 336
00000.M2TS 4609 (0x1201) 0x90 PGS rus (Russian) 12126,281 25 37 246 531 215 367
00000.M2TS 4610 (0x1202) 0x90 PGS rus (Russian) 12126,281 18 28 024 204 163 018
00000.M2TS 4611 (0x1203) 0x90 PGS rus (Russian) 12126,281 18 27 423 418 159 318
00000.M2TS 4612 (0x1204) 0x90 PGS eng (English) 12126,281 34 51 453 310 290 115
00000.M2TS 4613 (0x1205) 0x90 PGS eng (English) 12126,281 39 59 773 120 337 585
00000.M2TS 4614 (0x1206) 0x90 PGS eng (English) 12126,281 6 8 758 791 49 698
Крестный отец 3 / The Godfather: Part III

«Настоящую власть никто не дает. Её нужно взять»

Страна: США
Жанр:драма, криминал
Год выпуска: 1990
Продолжительность:02:50:15
Перевод: Профессиональный (полное дублирование) + Профессиональный (Многоголосый закадровый) + Профессиональный (Двухголосый закадровый) + Профессиональный (Одноголосый закадровый)
Оригинальная дорожка: английский
Субтитры: Русские, Английские
Режиссер: Френсис Форд Коппола
В ролях: Аль Пачино, Дайан Китон, Талия Шайр, Энди Гарсиа, Эли Уоллах, Джо Мантенья, Джордж Хэмилтон, Бриджет Фонда, София Коппола, Раф Валлоне, Фрэнк Д`Амброзио, Донал Доннелли, Ричард Брайт, Хельмут Бергер, Дон Новелло, Джон Сэвадж, Франко Читти, Марио Донатоне, Витторио Дузе, Энцо Робутти, Мишель Руссо
Описание:
Заключительная часть знаменитой гангстерской эпопеи, в которой продолжается рассказ о делах «семьи» дона Корлеоне. Через двадцать лет после событий, описанных в предыдущей картине, Майкл Корлеоне решает заняться легальным бизнесом. Однако противодействие внутри клана заставляет его вспомнить об испытанных кровавых методах общения с противником, что приводит к трагическому итогу.


Качество: BDRemux 1080p
Формат: BDMV
Видео кодек: MPEG-4 AVC
Аудио кодек: DTS-HD MA, TrueHD, AC3
Видео: 1920x1080 at 23.976 fps, MPEG-4 AVC, ~28934 kbps avg
Аудио#1: Russian: 48 kHz, AC3, 3/2 (L,C,R,l,r) + LFE ch, ~384.00 kbps avg |Дубляж, iTunes|
Аудио#2: Russian: 48 kHz/24-bit, DTS-HD MA 5.1, ~3745.00 kbps avg |Многоголосый закадровый, Карусель/Киномания|
Аудио#3: Russian: 48 kHz, AC3, 3/2 (L,C,R,l,r) + LFE ch, ~448.00 kbps avg |Многоголосый закадровый, R5|
Аудио#4: Russian: 48 kHz, AC3, 3/2 (L,C,R,l,r) + LFE ch, ~448.00 kbps avg |Многоголосый закадровый, Кравец|
Аудио#5: Russian: 48 kHz, AC3, 3/2 (L,C,R,l,r) + LFE ch, ~448.00 kbps avg |Многоголосый закадровый, Медиакомплекс|
Аудио#6: Russian: 48 kHz, AC3, 3/2 (L,C,R,l,r) + LFE ch, ~448.00 kbps avg |Многоголосый закадровый, С.Р.И.|
Аудио#7: Russian: 48 kHz, AC3, 3/2 (L,C,R,l,r) + LFE ch, ~448.00 kbps avg |Двухголосый закадровый|
Аудио#8: Russian: 48 kHz, AC3, 2/0 (L,R) ch, ~192.00 kbps avg |Двухголосый закадровый, Премьер Видео Фильм|
Аудио#9: Russian: 48 kHz/24-bit, DTS-HD MA 5.1, ~3739.00 kbps avg |Одноголосый закадровый, Ю.Сербин|
Аудио#10: Russian: 48 kHz/24-bit, DTS-HD MA 5.1, ~3732.00 kbps avg |Одноголосый закадровый, Ю.Живов|
Аудио#11: Russian: 48 kHz/24-bit, DTS-HD MA 5.1, ~3724.00 kbps avg |Одноголосый закадровый, А.Гаврилов|
Аудио#12: Ukrainian: 48 kHz, AC3, 2/0 (L,R) ch, ~192.00 kbps avg |Многоголосый закадровый, ТакТребаПродакшн|
Аудио#13: Ukrainian: 48 kHz, AC3, 2/0 (L,R) ch, ~192.00 kbps avg |Двухголосый закадровый, 1+1|
Аудио#14: English: 48 kHz/24-bit, Dolby TrueHD 5.1, ~3309.00 kbps avg
Аудио#15: English: 48 kHz, AC3, 2/0 (L,R) ch, ~192.00 kbps avg |Commentary by Francis Ford Coppola|

DISC INFO:

Disc Title: THE_GODFATHER_PART_III_REMUX_HDCLUB
Disc Size: 71 396 896 156 bytes
Protection: AACS
BD-Java: No
BDInfo: 0.5.8

PLAYLIST REPORT:

Name: 00000.MPLS
Length: 2:50:15.242 (h:m:s.ms)
Size: 71 396 739 072 bytes
Total Bitrate: 55,91 Mbps

VIDEO:

Codec Bitrate Description
----- ------- -----------
MPEG-4 AVC Video 28934 kbps 1080p / 23,976 fps / 16:9 / High Profile 4.1

AUDIO:

Codec Language Bitrate Description
----- -------- ------- -----------
Dolby Digital Audio Russian 384 kbps 5.1 / 48 kHz / 384 kbps / DN -4dB
DTS-HD Master Audio Russian 3745 kbps 5.1 / 48 kHz / 3745 kbps / 24-bit (DTS Core: 5.1 / 48 kHz / 1509 kbps / 24-bit)
Dolby Digital Audio Russian 448 kbps 5.1 / 48 kHz / 448 kbps
Dolby Digital Audio Russian 448 kbps 5.1 / 48 kHz / 448 kbps / DN -4dB
Dolby Digital Audio Russian 448 kbps 5.1 / 48 kHz / 448 kbps / DN -4dB
Dolby Digital Audio Russian 448 kbps 5.1 / 48 kHz / 448 kbps
Dolby Digital Audio Russian 448 kbps 5.1 / 48 kHz / 448 kbps / DN -4dB
Dolby Digital Audio Russian 192 kbps 2.0 / 48 kHz / 192 kbps / DN -4dB
DTS-HD Master Audio Russian 3739 kbps 5.1 / 48 kHz / 3739 kbps / 24-bit (DTS Core: 5.1 / 48 kHz / 1509 kbps / 24-bit)
DTS-HD Master Audio Russian 3732 kbps 5.1 / 48 kHz / 3732 kbps / 24-bit (DTS Core: 5.1 / 48 kHz / 1509 kbps / 24-bit)
DTS-HD Master Audio Russian 3724 kbps 5.1 / 48 kHz / 3724 kbps / 24-bit (DTS Core: 5.1 / 48 kHz / 1509 kbps / 24-bit)
Dolby Digital Audio Ukrainian 192 kbps 2.0 / 48 kHz / 192 kbps / DN -4dB
Dolby Digital Audio Ukrainian 192 kbps 2.0 / 48 kHz / 192 kbps / DN -4dB
Dolby TrueHD Audio English 3309 kbps 5.1 / 48 kHz / 3309 kbps / 24-bit (AC3 Embedded: 5.1 / 48 kHz / 640 kbps / DN -4dB)
Dolby Digital Audio English 192 kbps 2.0 / 48 kHz / 192 kbps / DN -4dB / Dolby Surround

SUBTITLES:

Codec Language Bitrate Description
----- -------- ------- -----------
Presentation Graphics Russian 1,317 kbps
Presentation Graphics Russian 18,177 kbps
Presentation Graphics Russian 23,910 kbps
Presentation Graphics Russian 17,491 kbps
Presentation Graphics English 32,248 kbps
Presentation Graphics English 37,218 kbps
Presentation Graphics English 1,941 kbps

FILES:

Name Time In Length Size Total Bitrate
---- ------- ------ ---- -------------
00000.M2TS 0:00:00.000 2:50:15.242 71 396 739 072 55 914

CHAPTERS:

Number Time In Length Avg Video Rate Max 1-Sec Rate Max 1-Sec Time Max 5-Sec Rate Max 5-Sec Time Max 10Sec Rate Max 10Sec Time Avg Frame Size Max Frame Size Max Frame Time
------ ------- ------ -------------- -------------- -------------- -------------- -------------- -------------- -------------- -------------- -------------- --------------
1 0:00:00.000 0:06:01.150 25 921 kbps 44 630 kbps 00:00:22.313 39 021 kbps 00:00:18.268 37 599 kbps 00:00:13.304 135 122 bytes 431 730 bytes 00:00:23.023
2 0:06:01.150 0:08:35.181 31 224 kbps 39 348 kbps 00:06:34.394 37 820 kbps 00:06:31.891 37 675 kbps 00:06:09.702 162 788 bytes 360 831 bytes 00:06:04.072
3 0:14:36.332 0:08:23.753 28 731 kbps 36 839 kbps 00:18:57.594 35 932 kbps 00:18:54.508 35 347 kbps 00:18:54.299 149 789 bytes 297 373 bytes 00:18:56.343
4 0:23:00.086 0:09:25.231 28 990 kbps 35 249 kbps 00:31:42.692 33 894 kbps 00:31:26.050 33 725 kbps 00:31:25.758 151 139 bytes 306 222 bytes 00:30:47.845
5 0:32:25.317 0:07:00.880 27 903 kbps 38 839 kbps 00:37:42.426 37 177 kbps 00:37:07.391 36 642 kbps 00:37:54.271 145 473 bytes 326 926 bytes 00:37:34.085
6 0:39:26.197 0:03:34.088 31 195 kbps 34 910 kbps 00:41:48.380 34 055 kbps 00:41:46.420 33 987 kbps 00:41:40.414 162 639 bytes 292 856 bytes 00:41:46.462
7 0:43:00.286 0:06:30.764 27 222 kbps 39 200 kbps 00:45:51.290 37 872 kbps 00:45:51.248 34 656 kbps 00:45:51.081 141 921 bytes 328 453 bytes 00:45:54.126
8 0:49:31.050 0:04:00.532 32 391 kbps 38 851 kbps 00:49:33.595 37 761 kbps 00:49:33.512 36 050 kbps 00:51:56.363 168 871 bytes 361 246 bytes 00:49:39.726
9 0:53:31.583 0:10:40.681 29 129 kbps 42 248 kbps 01:02:10.726 37 994 kbps 00:53:33.919 36 224 kbps 00:57:39.581 151 867 bytes 384 806 bytes 01:02:30.413
10 1:04:12.264 0:08:29.009 31 301 kbps 43 863 kbps 01:12:37.770 37 800 kbps 01:09:57.234 37 696 kbps 01:11:03.467 163 188 bytes 429 179 bytes 01:12:38.312
11 1:12:41.273 0:03:51.439 24 152 kbps 33 312 kbps 01:12:42.941 32 392 kbps 01:12:52.201 32 234 kbps 01:12:47.071 125 915 bytes 294 463 bytes 01:12:44.276
12 1:16:32.712 0:03:13.485 26 963 kbps 36 525 kbps 01:19:14.916 32 651 kbps 01:19:11.913 31 523 kbps 01:17:47.496 140 573 bytes 333 554 bytes 01:19:12.873
13 1:19:46.198 0:05:14.521 30 241 kbps 35 189 kbps 01:24:39.449 34 227 kbps 01:24:35.612 34 065 kbps 01:24:36.571 157 662 bytes 375 775 bytes 01:25:00.720
14 1:25:00.720 0:08:07.695 28 990 kbps 38 404 kbps 01:31:49.420 37 782 kbps 01:31:56.761 37 668 kbps 01:31:55.218 151 140 bytes 446 981 bytes 01:27:10.475
15 1:33:08.416 0:05:10.184 28 324 kbps 38 400 kbps 01:35:07.368 37 179 kbps 01:35:14.166 36 901 kbps 01:35:13.833 147 666 bytes 385 341 bytes 01:34:58.484
16 1:38:18.600 0:11:21.763 28 689 kbps 37 503 kbps 01:44:18.418 36 387 kbps 01:44:14.414 36 313 kbps 01:44:09.409 149 572 bytes 340 227 bytes 01:47:25.480
17 1:49:40.363 0:13:58.422 29 492 kbps 38 735 kbps 01:52:30.910 37 846 kbps 01:52:30.618 37 723 kbps 01:54:11.719 153 755 bytes 391 122 bytes 01:58:07.622
18 2:03:38.786 0:02:37.573 31 050 kbps 38 935 kbps 02:04:48.856 37 862 kbps 02:05:34.193 37 693 kbps 02:05:29.188 161 878 bytes 372 726 bytes 02:04:48.898
19 2:06:16.359 0:06:09.994 28 113 kbps 34 931 kbps 02:10:55.597 33 858 kbps 02:10:51.802 32 758 kbps 02:10:49.132 146 568 bytes 272 826 bytes 02:06:25.661
20 2:12:26.354 0:05:19.945 29 386 kbps 38 341 kbps 02:12:41.787 36 108 kbps 02:12:31.735 35 312 kbps 02:12:33.111 153 206 bytes 359 784 bytes 02:17:39.793
21 2:17:46.299 0:09:05.001 28 971 kbps 36 625 kbps 02:19:58.890 35 253 kbps 02:21:38.531 34 473 kbps 02:20:55.238 151 040 bytes 345 296 bytes 02:24:31.120
22 2:26:51.301 0:08:53.325 29 058 kbps 38 445 kbps 02:28:57.386 36 710 kbps 02:28:09.046 35 788 kbps 02:28:09.046 151 496 bytes 335 369 bytes 02:35:15.681
23 2:35:44.626 0:05:00.298 29 571 kbps 35 858 kbps 02:37:58.218 34 052 kbps 02:37:54.298 33 086 kbps 02:37:54.423 154 169 bytes 312 373 bytes 02:35:48.005
24 2:40:44.924 0:02:00.412 27 621 kbps 36 278 kbps 02:41:20.003 35 185 kbps 02:41:16.750 32 637 kbps 02:41:15.499 144 001 bytes 333 891 bytes 02:42:07.342
25 2:42:45.337 0:07:29.905 26 887 kbps 44 079 kbps 02:50:11.075 38 955 kbps 02:50:07.071 37 763 kbps 02:46:59.676 140 191 bytes 400 109 bytes 02:50:11.367

STREAM DIAGNOSTICS:

File PID Type Codec Language Seconds Bitrate Bytes Packets
---- --- ---- ----- -------- -------------- -------------- ------------- -----
00000.M2TS 4113 (0x1011) 0x1B AVC 10215,122 28 934 36 945 638 650 200 935 612
00000.M2TS 4352 (0x1100) 0x81 AC3 rus (Russian) 10215,122 384 490 332 672 2 873 043
00000.M2TS 4353 (0x1101) 0x86 DTS-HD MA rus (Russian) 10215,122 3 746 4 782 633 704 27 584 777
00000.M2TS 4354 (0x1102) 0x81 AC3 rus (Russian) 10215,122 448 572 052 992 3 192 269
00000.M2TS 4355 (0x1103) 0x81 AC3 rus (Russian) 10215,122 448 572 054 784 3 192 270
00000.M2TS 4356 (0x1104) 0x81 AC3 rus (Russian) 10215,122 448 572 054 784 3 192 270
00000.M2TS 4357 (0x1105) 0x81 AC3 rus (Russian) 10215,122 448 572 054 784 3 192 270
00000.M2TS 4358 (0x1106) 0x81 AC3 rus (Russian) 10215,122 448 572 054 784 3 192 270
00000.M2TS 4359 (0x1107) 0x81 AC3 rus (Russian) 10215,122 192 245 166 336 1 596 135
00000.M2TS 4360 (0x1108) 0x86 DTS-HD MA rus (Russian) 10215,122 3 739 4 773 929 316 27 536 688
00000.M2TS 4361 (0x1109) 0x86 DTS-HD MA rus (Russian) 10215,122 3 732 4 765 667 388 27 492 251
00000.M2TS 4362 (0x110A) 0x86 DTS-HD MA rus (Russian) 10215,122 3 724 4 754 927 420 27 434 112
00000.M2TS 4363 (0x110B) 0x81 AC3 ukr (Ukrainian) 10215,122 192 245 165 568 1 596 130
00000.M2TS 4364 (0x110C) 0x81 AC3 ukr (Ukrainian) 10215,122 192 245 164 800 1 596 125
00000.M2TS 4365 (0x110D) 0x83 TrueHD eng (English) 10215,122 3 949 5 042 839 538 34 401 316
00000.M2TS 4366 (0x110E) 0x81 AC3 eng (English) 10215,122 192 245 166 336 1 596 135
00000.M2TS 4608 (0x1200) 0x90 PGS rus (Russian) 10215,122 1 1 681 721 9 827
00000.M2TS 4609 (0x1201) 0x90 PGS rus (Russian) 10215,122 18 23 210 790 134 963
00000.M2TS 4610 (0x1202) 0x90 PGS rus (Russian) 10215,122 24 30 530 790 176 925
00000.M2TS 4611 (0x1203) 0x90 PGS rus (Russian) 10215,122 17 22 334 475 130 185
00000.M2TS 4612 (0x1204) 0x90 PGS eng (English) 10215,122 32 41 177 413 232 735
00000.M2TS 4613 (0x1205) 0x90 PGS eng (English) 10215,122 37 47 524 056 269 022
00000.M2TS 4614 (0x1206) 0x90 PGS eng (English) 10215,122 2 2 479 047 14 054
info [Профиль]  [ЛС] 

post 05-Окт-2016 22:06 (спустя 1 день 8 часов) [-]0[+]

Топик был перенесен из форума Оформление раздач (Кинематограф) в форум Зарубежное кино | HD DVD и Blu-ray

Eвгений
 

lonsdale88

Стаж: 4 года 2 месяца

Сообщений: 42

Россия
Рейтинг

post 05-Окт-2016 23:03 (спустя 1 день 9 часов) [-]6[+]

[Цитировать] 

тудудудуду тудудуду тудуду
info [Профиль]  [ЛС] 

haizenberg

Пол: Пол:Муж

Стаж: 4 года 1 месяц

Сообщений: 361

Предупреждений: 3

СССР
Рейтинг

post 05-Окт-2016 23:14 (спустя 11 минут) [-]6[+]

[Цитировать] 

lonsdale88 писал(а):

тудудудуду тудудуду тудуду
не плохо напел, сразу узналась главная тема этого киношедевра.

_________________
День Победы, как он был от нас далек,
Как в костре потухшем таял уголек.....
info [Профиль]  [ЛС] 

ValeraDevil123

Пол: Пол:Муж

Стаж: 2 года 5 месяцев

Сообщений: 875

Россия
Рейтинг

post 05-Окт-2016 23:21 (спустя 6 минут) [-]8[+]

[Цитировать] 

lonsdale88 писал(а):

тудудудуду тудудуду тудуду
хорошо, однако, спето. Толково.
info [Профиль]  [ЛС] 

Constant

Пол: Пол:Муж

Стаж: 7 лет 2 месяца

Сообщений: 466

Россия
Рейтинг

post 06-Окт-2016 00:03 (спустя 42 минуты) [-]2[+]

[Цитировать] 

Шикарный фильм, еще советую посмотреть Однажды в Америке, который тоже ничем ему не уступает.

_________________
Xbox 360 slim 250gb+kinect LT+2.0 Dashboard 2.0 16536
PC CPU FX8320 RAM 8gb 1600 GPU R9 270X SSD 120 HDD 2TB Power 750W
info [Профиль]  [ЛС] 

deagle1992

Пол: Пол:Муж

Стаж: 4 года 4 месяца

Сообщений: 305

Россия
Рейтинг

post 06-Окт-2016 08:19 (спустя 8 часов) [-]3[+]

[Цитировать] 

ValeraDevil123 писал(а):

lonsdale88 писал(а):

тудудудуду тудудуду тудуду
хорошо, однако, спето. Толково.
А главное, душевно так, аж за душу взяло kolob_102
info [Профиль]  [ЛС] 

TVippy

Пол: Пол:Жен

Стаж: 6 лет 9 месяцев

Сообщений: 897

Австралия
Рейтинг

post 06-Окт-2016 22:43 (спустя 14 часов) [-]0[+]

[Цитировать] 

Все-таки не нужен этому зернистому источнику отвратительнейшего качества такой битрейт. В данном случае ни за что не заметите разницы с рипом на 15ГБ.

_________________
info [Профиль]  [ЛС] 

Stason333

Пол: Пол:Муж

Стаж: 4 года 7 месяцев

Сообщений: 56

Россия
Рейтинг

post 06-Окт-2016 23:38 (спустя 54 минуты) [-]0[+]

[Цитировать] 

Буду сильно благодарен если кто нибудь на раздачу встанет!
info [Профиль]  [ЛС] 
Показать сообщения:    
Ответить на тему

Текущее время: 10-Дек 01:25

Часовой пояс: GMT + 4



Вы не можете начинать темы
Вы не можете отвечать на сообщения
Вы не можете редактировать свои сообщения
Вы не можете удалять свои сообщения
Вы не можете голосовать в опросах
Вы не можете прикреплять файлы к сообщениям
Вы не можете скачивать файлы