Ошибка

БАНАНЬКА!!! / Bananya (TV) [1-13 из 13] [2016] [Комедия] [HDTV1080p] [Любительская]

Ответить на тему
 
Автор Сообщение

Chel90RUS

Пол: Пол:Муж

Стаж: 5 лет 5 месяцев

Сообщений: 413

Россия
Рейтинг

post 03-Окт-2016 02:29 0[+]

[Цитировать] 

pic="http://static2.anidub.com/tracker/poster/caf6c2e8fe.jpg"
БАНАНЬКА!!!
Bananya / ばなにゃ

Год выпуска: 2016
Жанр: Комедия
Страна: Япония
Тип: HDTV
Продолжительность: 13 серий по 3 мин
Дата выпуска: c 04.07.2016 по 26.09.2016
Режиссер: Ятатэ Кё
Студия: TMS
Озвучено: Гамлетка Цезаревна, 9й Неизвестный
Перевод: 9й Неизвестный
Тайминг и работа со звуком: 9й Неизвестный
Формат файла: Mp4
Аудио: AAC 48000Hz stereo 255kbps [A: aac lc, 48000 Hz, stereo, 255 kb/s]
Видео: MPEG4 Video (H264) 1920x1080 23.976fps 3347kbps [V: h264 constrained baseline L1.3, yuv420p, 1920x1080, 3347 kb/s]

General
Complete name : \[AniDub]_Bananya_[01]_[1080p_x264_Aac]_[Hamletka_Cezarevna_9th_Unknown].mp4
Format : MPEG-4
Format profile : Base Media
Codec ID : isom
File size : 77.4 MiB
Duration : 3mn 0s
Overall bit rate mode : Variable
Overall bit rate : 3 601 Kbps
Encoded date : UTC 2016-07-08 20:53:53
Tagged date : UTC 2016-07-08 20:53:53

Video
ID : 1
Format : AVC
Format/Info : Advanced Video Codec
Format profile : Baseline@L1.3
Format settings, CABAC : No
Format settings, ReFrames : 1 frame
Format settings, GOP : M=1, N=12
Codec ID : avc1
Codec ID/Info : Advanced Video Coding
Duration : 3mn 0s
Bit rate : 3 348 Kbps
Maximum bit rate : 10.6 Mbps
Width : 1 920 pixels
Height : 1 080 pixels
Display aspect ratio : 16:9
Frame rate mode : Constant
Frame rate : 23.976 fps
Color space : YUV
Chroma subsampling : 4:2:0
Bit depth : 8 bits
Scan type : Progressive
Bits/(Pixel*Frame) : 0.067
Stream size : 71.9 MiB (93%)
Encoded date : UTC 2016-07-08 20:08:31
Tagged date : UTC 2016-07-08 20:53:55

Audio
ID : 2
Format : AAC
Format/Info : Advanced Audio Codec
Format profile : LC
Codec ID : 40
Duration : 3mn 0s
Bit rate mode : Variable
Bit rate : 255 Kbps
Maximum bit rate : 283 Kbps
Channel(s) : 2 channels
Channel positions : Front: L R
Sampling rate : 48.0 KHz
Compression mode : Lossy
Stream size : 5.49 MiB (7%)
Encoded date : UTC 2016-07-08 20:53:33
Tagged date : UTC 2016-07-08 20:53:55


Описание: Бананы. Мы относимся к ним как к еде, но старина Фрейд знал, что они на самом деле такое...
ПРЕДУПРЕЖДЕНИЕ: РЕЛИЗ ПОДГОТОВЛЕН 9ЫМ НЕИЗВЕСТНЫМ В СОСТОЯНИИ ШИЗОФРЕНИИ, ПОД УГРОЗОЙ РАССТРЕЛА ГАМЛЕТКОЙ ЦЕЗАРЕВНОЙ. ПОБЕРЕГИТЕ СВОЮ ПСИХИКУ!


ВОЗРАСТНОЕ ОГРАНИЧЕНИЕ 18+
info [Профиль]  [ЛС] 

RoyTarg

Пол: Пол:Муж

Стаж: 4 года 1 месяц

Сообщений: 32

Россия
Рейтинг

post 03-Окт-2016 18:55 (спустя 16 часов) [-]1[+]

[Цитировать] 

Редкостная чушь.

_________________
: ) : Намастэ!
info [Профиль]  [ЛС] 

BlackEvangel

Стаж: 7 лет 3 месяца

Сообщений: 728

Россия
Рейтинг

post 03-Окт-2016 19:32 (спустя 37 минут) [-]6[+]

[Цитировать] 

Всегда не понимал для кого делают подобного рода озвучку. Тем кто 18+, вряд ли такое будет интересно... а вот мелкота может и будет гыгыкать над этим примитивизмом.

_________________
info [Профиль]  [ЛС] 

WereVolf

Пол: Пол:Муж

Стаж: 7 лет 4 месяца

Сообщений: 43

Предупреждений: 1

Россия
Рейтинг

post 04-Окт-2016 18:42 (спустя 23 часа) [-]0[+]

[Цитировать] 

BlackEvangel писал(а):

Всегда не понимал для кого делают подобного рода озвучку. Тем кто 18+, вряд ли такое будет интересно... а вот мелкота может и будет гыгыкать над этим примитивизмом.
Ну попадались люди те кто ходит в кино на самый лучший фильм и т.п. дрянь и считает его очень качественным фильмом как и высеры андреасяна и им явно за +18
Так же есть те кто под пивко или под поровозик подобное смотрит
info [Профиль]  [ЛС] 
Показать сообщения:    
Ответить на тему

Текущее время: 05-Дек 08:30

Часовой пояс: GMT + 4



Вы не можете начинать темы
Вы не можете отвечать на сообщения
Вы не можете редактировать свои сообщения
Вы не можете удалять свои сообщения
Вы не можете голосовать в опросах
Вы не можете прикреплять файлы к сообщениям
Вы не можете скачивать файлы