Ошибка

Мобильно-магическое училище / Masou Gakuen HxH (TV) [1-12 из 12] [2016] [Приключения, комедия, этти, романтика, школа, гарем, фантастика] [HDTV720p] [Любительская (Многолосая)]

Ответить на тему
 
Автор Сообщение

Chel90RUS

Пол: Пол:Муж

Стаж: 5 лет 5 месяцев

Сообщений: 413

Россия
Рейтинг

post 03-Окт-2016 01:55 0[+]

[Цитировать] 

pic="http://static2.anidub.com/tracker/poster/3f2e57a22c.jpg"
Мобильно-магическое училище
Masou Gakuen HxH / Hybrid x Heart Magias Academy Ataraxia / 魔装学園H×H

Год выпуска: 2016
Жанр: Приключения, комедия, этти, романтика, школа, гарем, фантастика
Страна: Япония
Тип: HDTV
Продолжительность: 12 серий ~ 25 мин
Дата выпуска: c 06.07.2016 по 21.09.2016
Режиссер: Фурукава Хироюки
Автор оригинала / Сценарист: Кудзи Масамунэ
Студия: Production IMS
Озвучено: Ancord, Jade, Гамлетка Цезаревна
Перевод: Jenia aka Zub, Oni
Тайминг и работа со звуком: Sheeze
Формат файла: Mp4
Аудио: AAC 48000Hz stereo 192kbps [A: English [eng] (aac lc, 48000 Hz, stereo, 192 kb/s)]
Видео: MPEG4 Video (H264) 1280x720 23.976fps 1655kbps [V: Alias Data Handler [eng] (h264 main L3.2, yuv420p, 1280x720, 1655 kb/s)]

General
Complete name : \[AniDub]_Masou_Gakuen_HxH_[01]_[720p_x264_Aac]_[MVO].mp4
Format : MPEG-4
Format profile : Base Media
Codec ID : isom
File size : 323 MiB
Duration : 24mn 22s
Overall bit rate mode : Variable
Overall bit rate : 1 851 Kbps
Encoded date : UTC 2016-07-06 17:09:57
Tagged date : UTC 2016-07-06 17:09:57
Writing application : Yamb 2.1.0.0
Video
ID : 1
Format : AVC
Format/Info : Advanced Video Codec
Format profile : Main@L3.2
Format settings, CABAC : Yes
Format settings, ReFrames : 3 frames
Codec ID : avc1
Codec ID/Info : Advanced Video Coding
Duration : 24mn 22s
Bit rate mode : Variable
Bit rate : 1 656 Kbps
Maximum bit rate : 10.3 Mbps
Width : 1 280 pixels
Height : 720 pixels
Display aspect ratio : 16:9
Frame rate mode : Variable
Frame rate : 23.976 fps
Minimum frame rate : 23.976 fps
Maximum frame rate : 23.988 fps
Standard : NTSC
Color space : YUV
Chroma subsampling : 4:2:0
Bit depth : 8 bits
Scan type : Progressive
Bits/(Pixel*Frame) : 0.075
Stream size : 289 MiB (89%)
Language : English
Encoded date : UTC 2016-07-06 17:12:35
Tagged date : UTC 2016-07-06 17:11:00
Color range : Limited

Audio
ID : 2
Format : AAC
Format/Info : Advanced Audio Codec
Format profile : LC
Codec ID : 40
Duration : 24mn 22s
Bit rate mode : Variable
Bit rate : 192 Kbps
Maximum bit rate : 196 Kbps
Channel(s) : 2 channels
Channel positions : Front: L R
Sampling rate : 48.0 KHz
Compression mode : Lossy
Stream size : 33.5 MiB (10%)
Language : English
Encoded date : UTC 2016-07-06 17:10:48
Tagged date : UTC 2016-07-06 17:11:00


Описание:Кизуна Хида вступает в стратегическую академию обороны Атараксия по просьбе своей сестры. Ученики этой академии обладают некой магической силой. Там Кизуна сталкивается с Айнэ Чидоригафучи — девушкой, пилотирующей магическую броню «Зерос». Эта броня работает за счет магических способностей ее пилота и приводится в действие при помощи «сердца гибридного привода». Вдруг, ни с того ни с сего, Айнэ начинает раздеваться прямо на глазах у Кизуны. Позже он узнает от своей сестры, что обладает силой, способной усиливать способности девушек посредством непристойных действий. И только от его силы зависит исход битвы против другого мира.


ВОЗРАСТНОЕ ОГРАНИЧЕНИЕ 18+
info [Профиль]  [ЛС] 

naispy2

Стаж: 6 лет 9 месяцев

Сообщений: 269

Рейтинг

post 03-Окт-2016 20:51 (спустя 18 часов) [-]0[+]

[Цитировать] 

Судя по 3 и 6 скринам - хорошее аниме =)
info [Профиль]  [ЛС] 

6Y6JIiK

Пол: Пол:Муж

Стаж: 6 лет 7 месяцев

Сообщений: 71

Польша
Рейтинг

post 17-Окт-2016 22:47 (спустя 14 дней) [-]0[+]

[Цитировать] 

naispy2 писал(а):

Судя по 3 и 6 скринам - хорошее аниме =)
Норм анимешка kolob_119
info [Профиль]  [ЛС] 
Показать сообщения:    
Ответить на тему

Текущее время: 03-Дек 02:24

Часовой пояс: GMT + 4



Вы не можете начинать темы
Вы не можете отвечать на сообщения
Вы не можете редактировать свои сообщения
Вы не можете удалять свои сообщения
Вы не можете голосовать в опросах
Вы не можете прикреплять файлы к сообщениям
Вы не можете скачивать файлы