Ошибка

Металлопокалипсис / Metalocalypse / Сезон: 4 / Серии: 1-12 (12), (Брендон Смолл, Томми Блача / Brendon Small, Tommy Blacha) [2012, Дэт-Метал, Чёрная Комедия, Сатира, BDRip 1080p] MVO [2x2], VO [Corvin] + Sub (Rus, Eng)

Ответить на тему
 
Автор Сообщение

OlegChe

Пол: Пол:Муж

Стаж: 3 года 7 месяцев

Сообщений: 30

СССР
Рейтинг

post 20-Сен-2016 20:32 4[+]

[Цитировать] 

Металлопокалипсис | Metalocalypse

Оригинальное название: Metalocalypse
Год выпуска: 2012
Страна: США
Жанр: Дэт-Метал, Чёрная Комедия, Сатира
Серия: Серии: 1-12 (12),
Сезон: Сезон: 4
Продолжительность: 00:11:00
Перевод: Профессиональный (многоголосый, закадровый)2x2
Перевод 2:Авторский (одноголосый закадровый)
{ Булат Corvin Данилов }
Субтитры: Русские (Notabenoid), Английские
Режиссер:
  • Брендон Смолл, Томми Блача / Brendon Small, Tommy Blacha
В ролях:
  • Brendon Small, Tommy Blacha, Mark Hamill, Victor Brandt, Malcolm McDowell

Описание:
Metalocalypse - мультсериал о брутальной дэт-метал группе Dethklok. Которая является настолько популярной, что для многих стала настоящей манией. Ее фанаты живут по законам, которые им диктует слова песен. Концерты Dethklok невероятно жестоки. Большинство фанатов получают тяжелые физические повреждения, которые часто не совместимы с жизнью. Даже попытки участников группы сделать что-нибудь хорошее, например, заняться благотворительностью, оборачивается невероятным количеством жертв. Несмотря на всё это, люди продолжает обожать Dethklok и готовы на всё, ради своих кумиров. В мультсериале высмеивается стереотипы всей метал культуры. А также темы религии, алкоголизма, политики и экономики. В озвучке персонажей принимают участие музыканты групп Metallica, Nevermore, Arch Enemy, King Diamond, Cannibal Corpse, Dimmu Borgir, Emperor, гитарист Марти Фридмен, а также актёр Малкольм Макдауэлл. На данный момент отснято полных 4 сезона.


Доп. информация:
ВОЗРАСТНОЕ ОГРАНИЧЕНИЕ: 18+
Качество: BDRip 1080p |DEiMOS|
Формат: MKV
Данные видео: MPEG-4 AVC, 1920x1080, 23.976 fps, ~ 6500 kbps
Аудио 1:Русский, AC3 Dolby Digital, 2 ch, 192 kbps, 48 kHz [2x2]
Аудио 2:Русский, AC3 Dolby Digital, 2 ch, 192 kbps, 48 kHz [Corvin]
Аудио 3:Английский, AC3 Dolby Digital, 48 kHz, 6 ch, 448 kbps
Данные аудио:AC3 Dolby Digital, 2 ch, 192 kbps, 48 kHz
01 Fanklok
02 Diversityklok
03 Prankklok
04 Motherklok
05 Bookklok
06 Writersklok
07 Dethcamp
08 Dethvanity
09 Going Downklok
10 Dethdinner
11 Breakup Klok
12 Church of the Black Klok
Общее:
Уникальный идентификатор : 237725348461149486073193924875742262703 (0xB2D83C994BF3963A8E05A8127FFEB5AF)
Полное имя : D:\Новая папка (3)\Metalocalypse.Season.4.2012.x264.BDRip.1080p.Zuich32
Формат : Matroska
Версия формата : Version 4 / Version 2
Размер файла : 590 Мбайт
Продолжительность : 11 м.
Общий поток : 7294 Кбит/сек
Дата кодирования : UTC 2013-05-17 02:53:21
Программа кодирования : mkvmerge v6.2.0 ('Promised Land') built on Apr 28 2013 12:22:01
Библиотека кодирования : libebml v1.3.0 + libmatroska v1.4.0

Видео:
Идентификатор : 1
Формат : AVC
Формат/Информация : Advanced Video Codec
Профиль формата : High@L4.1
Параметр CABAC формата : Да
Параметр ReFrames формата : 4 кадра
Идентификатор кодека : V_MPEG4/ISO/AVC
Продолжительность : 11 м.
Битрейт : 6454 Кбит/сек
Ширина : 1920 пикселей
Высота : 1080 пикселей
Соотношение сторон : 16:9
Режим частоты кадров : Постоянный
Частота кадров : 23,976 кадра/сек
Цветовое пространство : YUV
Субдискретизация насыщенности : 4:2:0
Битовая глубина : 8 бит
Тип развёртки : Прогрессивная
Бит/(Пиксели*Кадры) : 0.130
Размер потока : 511 Мбайт (87%)
Заголовок : Fanklok
Библиотека кодирования : x264 core 128 r2216 198a7ea
Настройки программы : cabac=1 / ref=4 / deblock=1:0:0 / analyse=0x3:0x113 / me=umh / subme=7 / psy=1 / psy_rd=1.00:0.00 / mixed_ref=1 / me_range=16 / chroma_me=1 / trellis=1 / 8x8dct=1 / cqm=0 / deadzone=21,11 / fast_pskip=1 / chroma_qp_offset=-2 / threads=6 / lookahead_threads=1 / sliced_threads=0 / nr=0 / decimate=1 / interlaced=0 / bluray_compat=0 / constrained_intra=0 / bframes=3 / b_pyramid=2 / b_adapt=2 / b_bias=0 / direct=3 / weightb=1 / open_gop=0 / weightp=2 / keyint=240 / keyint_min=23 / scenecut=40 / intra_refresh=0 / rc_lookahead=50 / rc=2pass / mbtree=1 / bitrate=6454 / ratetol=1.0 / qcomp=0.60 / qpmin=10 / qpmax=51 / qpstep=4 / cplxblur=20.0 / qblur=0.5 / ip_ratio=1.40 / aq=1:1.00
Default : Да
Forced : Нет

Аудио #1
Идентификатор : 2
Формат : AC-3
Формат/Информация : Audio Coding 3
Расширение режима : CM (complete main)
Параметр Endianness формата : Big
Идентификатор кодека : A_AC3
Продолжительность : 11 м.
Вид битрейта : Постоянный
Битрейт : 192 Кбит/сек
Каналы : 2 канала
Расположение каналов : Front: L R
Частота : 48,0 КГц
Битовая глубина : 16 бит
Метод сжатия : С потерями
Размер потока : 15,5 Мбайт (3%)
Заголовок : 2x2 - AC3 Dolby Digital, 2ch, 192 kbps, 48 kHz
Язык : Russian
Default : Да
Forced : Нет

Аудио #2
Идентификатор : 3
Формат : AC-3
Формат/Информация : Audio Coding 3
Расширение режима : CM (complete main)
Параметр Endianness формата : Big
Идентификатор кодека : A_AC3
Продолжительность : 11 м.
Вид битрейта : Постоянный
Битрейт : 192 Кбит/сек
Каналы : 2 канала
Расположение каналов : Front: L R
Частота : 48,0 КГц
Битовая глубина : 16 бит
Метод сжатия : С потерями
Размер потока : 15,5 Мбайт (3%)
Заголовок : Corvin - AC3 Dolby Digital, 2ch, 192 kbps, 48 kHz
Язык : Russian
Default : Нет
Forced : Нет

Аудио #3
Идентификатор : 4
Формат : AC-3
Формат/Информация : Audio Coding 3
Расширение режима : CM (complete main)
Параметр Endianness формата : Big
Идентификатор кодека : A_AC3
Продолжительность : 11 м.
Вид битрейта : Постоянный
Битрейт : 448 Кбит/сек
Каналы : 6 каналов
Расположение каналов : Front: L C R, Side: L R, LFE
Частота : 48,0 КГц
Битовая глубина : 16 бит
Метод сжатия : С потерями
Размер потока : 36,2 Мбайт (6%)
Заголовок : Original - AC3 Dolby Digital, 6ch, 448 kbps, 48 kHz
Язык : English
Default : Нет
Forced : Нет

Текст #1
Идентификатор : 5
Формат : ASS
Идентификатор кодека : S_TEXT/ASS
Идентификатор кодека/Информация : Advanced Sub Station Alpha
Метод сжатия : Без потерь
Заголовок : Fanklok
Язык : Russian
Default : Да
Forced : Нет

Текст #2
Идентификатор : 6
Формат : ASS
Идентификатор кодека : S_TEXT/ASS
Идентификатор кодека/Информация : Advanced Sub Station Alpha
Метод сжатия : Без потерь
Заголовок : Fanklok
Язык : English
Default : Нет
Forced : Нет
info [Профиль]  [ЛС] 

Greyf24

Стаж: 2 года

Сообщений: 349

Предупреждений: 2

Зимбабве
Рейтинг

post 27-Сен-2016 13:54 (спустя 6 дней) [-]2[+]

[Цитировать] 

Оппа! А я и не знал! погляжу!
info [Профиль]  [ЛС] 

Digitalwizzard

Пол: Пол:Муж

Стаж: 4 года 4 месяца

Сообщений: 1739

Россия
Рейтинг

post 27-Сен-2016 14:40 (спустя 46 минут) [-]6[+]

[Цитировать] 

Корвин - это худщее что случилось с Металлопокалипсисом.
info [Профиль]  [ЛС] 

vodomer

Пол: Пол:Муж

Стаж: 6 лет 9 месяцев

Сообщений: 70

СССР
Рейтинг

post 27-Сен-2016 20:04 (спустя 5 часов) [-]-1[+]

[Цитировать] 

Metalocalypse - мультсериал о брутальной дэт-метал группе Dethklok - MDM,ну какой же тут брутал то))
и тем не менее спасибо!

_________________
Intel Core i7-4770/
Radeon R9 290Х/
128Gb SSD Plextor M5Pro/
16Gb DDR-III 1600MHz/
info [Профиль]  [ЛС] 

OlegChe

Пол: Пол:Муж

Стаж: 3 года 7 месяцев

Сообщений: 30

СССР
Рейтинг

post 27-Сен-2016 20:17 (спустя 13 минут) [-]0[+]

[Цитировать] 

vodomer
Не за что)))
info [Профиль]  [ЛС] 

Giltias

Пол: Пол:Муж

Стаж: 6 лет 9 месяцев

Сообщений: 544

Россия
Рейтинг

post 27-Сен-2016 21:20 (спустя 1 час 2 минуты) [-]0[+]

[Цитировать] 

Digitalwizzard писал(а):

Корвин - это худщее что случилось с Металлопокалипсисом.
перевод 2х2 дальше первых 16 серий тоже не блещет. Вот те да, были суперски озвучены.

_________________
Знал ли Создатель в шестой день творения,что уготовано миру людей...
info [Профиль]  [ЛС] 
Показать сообщения:    
Ответить на тему

Текущее время: 08-Дек 16:03

Часовой пояс: GMT + 4



Вы не можете начинать темы
Вы не можете отвечать на сообщения
Вы не можете редактировать свои сообщения
Вы не можете удалять свои сообщения
Вы не можете голосовать в опросах
Вы не можете прикреплять файлы к сообщениям
Вы не можете скачивать файлы