Ошибка
Загрузка...

Тайная жизнь домашних животных / The Secret Life of Pets (Ярроу Чейни, Крис Рено) [2016, мультфильм, комедия, приключения, BDRip] Dub (BD CEE)

Ответить на тему
 
Автор Сообщение

Kapolone

Пол: Пол:Муж

Стаж: 4 года 8 месяцев

Сообщений: 374

Канада
Рейтинг

post 01-Сен-2016 14:36 0[+]

[Цитировать] 

Тайная жизнь домашних животных / The Secret Life of Pets
«Думаете, они ждут вас у порога весь день?»

Год выпуска: 2016
Страна: Япония, США
Жанр: мультфильм, комедия, приключения
Продолжительность: 01:26:27
Перевод: Профессиональный (дублированный) [BD CEE]
Язык субтитров: Нет
Режиссер: Ярроу Чейни, Крис Рено
В ролях: Луис С.К., Эрик Стоунстрит, Кевин Харт, Дженни Слейт, Элли Кемпер, Альберт Брукс, Лэйк Белл, Дэна Карви, Хэннибал Бёресс, Бобби Мойнахан
Описание:
Что делают домашние животные пока хозяева пропадают на работе? С тоской смотрят в окно? Смиренно дремлют на коврике у двери? Как бы не так. Они ведут свою тайную жизнь.

Качество: BDRip
Формат: AVI
Видео кодек: XviD
Аудио кодек: AC3
Видео: 704x384 (1.83:1), 23,976 fps, XviD build 66 ~1946 kbps avg, 0.30 bit/pixel
Аудио: 48 kHz, AC3 Dolby Digital, 3/2 (L,C,R,l,r) + LFE ch, ~448.00 kbps avg
Субтитры: Нет

Код:

General
Complete name                            : Tajnaya.zhizn.domashnih.zhivotnyh.2016.RUS.BDRip.XviD.AC3.-HQCLUB.avi
Format                                   : AVI
Format/Info                              : Audio Video Interleave
File size                                : 1.45 GiB
Duration                                 : 1h 26mn
Overall bit rate                         : 2 404 Kbps
Director                                 : kingsize87
Writing application                      : VirtualDubMod 1.5.10.2 (build 2540/release)
Copyright                                : HQCLUB
Comment                                  : 12.12.2016

Video
ID                                       : 0
Format                                   : MPEG-4 Visual
Format profile                           : Advanced Simple@L5
Format settings, BVOP                    : 1
Format settings, QPel                    : No
Format settings, GMC                     : No warppoints
Format settings, Matrix                  : Custom
Codec ID                                 : XVID
Codec ID/Hint                            : XviD
Duration                                 : 1h 26mn
Bit rate                                 : 1 946 Kbps
Width                                    : 704 pixels
Height                                   : 384 pixels
Display aspect ratio                     : 1.85:1
Frame rate                               : 23.976 fps
Color space                              : YUV
Chroma subsampling                       : 4:2:0
Bit depth                                : 8 bits
Scan type                                : Progressive
Compression mode                         : Lossy
Bits/(Pixel*Frame)                       : 0.300
Stream size                              : 1.18 GiB (81%)
Writing library                          : XviD 66

Audio
ID                                       : 1
Format                                   : AC-3
Format/Info                              : Audio Coding 3
Mode extension                           : CM (complete main)
Format settings, Endianness              : Big
Codec ID                                 : 2000
Duration                                 : 1h 26mn
Bit rate mode                            : Constant
Bit rate                                 : 448 Kbps
Channel(s)                               : 6 channels
Channel positions                        : Front: L C R, Side: L R, LFE
Sampling rate                            : 48.0 KHz
Bit depth                                : 16 bits
Compression mode                         : Lossy
Stream size                              : 277 MiB (19%)
Alignment                                : Split accross interleaves
Interleave, duration                     : 42 ms (1.00 video frame)
Interleave, preload duration             : 500 ms
info [Профиль]  [ЛС] 

post 01-Сен-2016 15:02 (спустя 25 минут) [-]0[+]

Топик был перенесен из форума Зарубежные полнометражные мультфильмы в форум Новинки 2015-2016 (Rips)

BZzz
 

tayanov

Стаж: 4 года 5 месяцев

Сообщений: 33

Россия
Рейтинг

post 01-Сен-2016 15:30 (спустя 53 минуты) [-]7[+]

[Цитировать] 

Зачем ставить блюрей обложку на ави?
info [Профиль]  [ЛС] 

Beastmaster

Пол: Пол:Муж

Стаж: 7 лет 1 месяц

Сообщений: 201

Украина
Рейтинг

post 01-Сен-2016 15:31 (спустя 1 минута) [-]-5[+]

[Цитировать] 

стоит смотреть ?
info [Профиль]  [ЛС] 

Sparkboy

Стаж: 7 лет 6 месяцев

Сообщений: 49

Рейтинг

post 01-Сен-2016 16:45 (спустя 1 час 13 минут) [-]1[+]

[Цитировать] 

В кино ходили с мелким. Ну честно говоря смешных моментов не очень много. Весьма нудным показался. Сын через час начал часто спрашивать "скоро конец?" (4 года). Хотя другие мульты с удовольствием смотрел.

На разок норм но пересматривать врятли буду.

ЗЫ: угорал над моментом с поводком))
info [Профиль]  [ЛС] 

SergeyAjax

Пол: Пол:Муж

Стаж: 7 лет 3 месяца

Сообщений: 173

Кокосовые острова
Рейтинг

post 01-Сен-2016 17:17 (спустя 31 минута) [-]0[+]

[Цитировать] 

1 сентября и сразу релизы один за другим!

Народ с отпуска вернулся резко!
info [Профиль]  [ЛС] 

qpecc

Пол: Пол:Муж

Стаж: 8 лет 6 месяцев

Сообщений: 269

Рейтинг

post 01-Сен-2016 19:37 (спустя 2 часа 20 минут) [-]2[+]

[Цитировать] 

Sparkboy писал(а):

В кино ходили с мелким. Ну честно говоря смешных моментов не очень много. Весьма нудным показался. Сын через час начал часто спрашивать "скоро конец?" (4 года). Хотя другие мульты с удовольствием смотрел.

На разок норм но пересматривать врятли буду.

ЗЫ: угорал над моментом с поводком))
ходил не давно. и очень часто весь зал смеялся)

вполне годный мульт на один раз, персонажи запоминаются )
info [Профиль]  [ЛС] 

tayanov

Стаж: 4 года 5 месяцев

Сообщений: 33

Россия
Рейтинг

post 01-Сен-2016 21:41 (спустя 2 часа 4 минуты) [-]0[+]

[Цитировать] 

да тут джойказино ...
info [Профиль]  [ЛС] 

JBar

Стаж: 7 лет 7 месяцев

Сообщений: 407

Рейтинг

post 01-Сен-2016 23:18 (спустя 1 час 37 минут) [-]0[+]

[Цитировать] 

tayanov писал(а):

да тут джойказино ...
Вернее, казино-Х kolob_107 Да и реклама не мешает особо. Другое дело, что сам по себе мульт скучный и пресный, реально, не цепляет. Посмотреть можно разок, но до Пиксара и ДримВоркс ему как до луны.
info [Профиль]  [ЛС] 

Leliil

Пол: Пол:Муж

Стаж: 6 лет 2 месяца

Сообщений: 892

Россия
Рейтинг

post 02-Сен-2016 05:17 (спустя 5 часов) [-]0[+]

[Цитировать] 

JBar писал(а):

tayanov писал(а):

да тут джойказино ...
Вернее, казино-Х kolob_107 Да и реклама не мешает особо. Другое дело, что сам по себе мульт скучный и пресный, реально, не цепляет. Посмотреть можно разок, но до Пиксара и ДримВоркс ему как до луны.
Глянул сэмпл, вроде ничего так, на 1 раз сойдет.
Будем ждать лицензии :/

_________________
info [Профиль]  [ЛС] 

TesaracT1990

Пол: Пол:Муж

Стаж: 4 года 5 месяцев

Сообщений: 17

Россия
Рейтинг

post 11-Сен-2016 01:48 (спустя 8 дней) [-]0[+]

[Цитировать] 

Честно говоря, мультик так себе. Это конечно не полная дрянь, как Angry birds, но смешных и забавных моментов (рок-пудель имхо, лучший из них) очень уж мало. Большинство времени здесь орут, потом ударяются обо что-то, потом опять орут и т.д. Есть драматические моменты, но в темпе таких шуток они не сильно трогают, разве что концовка, можно сказать цепляет за фибры души. А так, если пропустите - не многое потеряете. kolob_111
info [Профиль]  [ЛС] 

Fairy

Пол: Пол:Жен

Стаж: 6 лет 3 месяца

Сообщений: 1266

Россия
Рейтинг

post 18-Сен-2016 00:33 (спустя 6 дней) [-]2[+]

[Цитировать] 

Разочаровалась, собственно, самое главное и смешное показали в трейлере. На один раз. Увы.
info [Профиль]  [ЛС] 

Kapolone

Пол: Пол:Муж

Стаж: 4 года 8 месяцев

Сообщений: 374

Канада
Рейтинг

post 21-Мар-2017 11:48 (спустя 6 месяцев 3 дня) [-]0[+]

[Цитировать] 

 !  Kapolone:
HDTVRip --> BDRip (BD CEE)

Без рекламы!

_________________
Follow your effort, not your passion!
Скорость, Рекорд
info [Профиль]  [ЛС] 
Показать сообщения:    
Ответить на тему

Текущее время: 23-Окт 22:49

Часовой пояс: GMT + 4



Вы не можете начинать темы
Вы не можете отвечать на сообщения
Вы не можете редактировать свои сообщения
Вы не можете удалять свои сообщения
Вы не можете голосовать в опросах
Вы не можете прикреплять файлы к сообщениям
Вы не можете скачивать файлы