Ошибка

До окончания фрилича осталось:


Аниме от А до Я / SHIROBAKO (TV) [1-24 из 24] [2014] [комедия] [HDTVRip720p] [Любительский]

Ответить на тему
 
Автор Сообщение

Chel90RUS

Пол: Пол:Муж

Стаж: 5 лет 5 месяцев

Сообщений: 413

Россия
Рейтинг

post 29-Авг-2016 18:34 0[+]

[Цитировать] 

pic="http://static3.anidub.com/online/poster/09265d7401.jpg"
Аниме от А до Я
SHIROBAKO

Год выпуска: 2014
Страна: Япония
Жанр: комедия
Продолжительность: 24 серии по 25 минут
Дата выпуска: c 09.10.2014 по 26.03.2015
Студия: P.A. Works
Режиссер: Мидзусима Цутому
Автор оригинала / Сценарист: Ёкотэ Митико
Перевод: FooBoo
Озвучка: Ancord
Тайминг и работа со звуком: Sakuragi_R


Качество: HDTVRip
Видео: MPEG4 Video (H264) 1280x720 23.976fps 1767kbps [V: I  (h264 high L4.0, yuv420p, 1280x720, 1767 kb/s)]
Аудио кодек: AAC 48000Hz stereo 192kbps [A: Russian [rus] (aac lc, 48000 Hz, stereo, 192 kb/s)]
General
Complete name : \[AniDub]_ShiroBako_[01]_[720p_x264_Aac]_[Ancord].mp4
Format : MPEG-4
Format profile : Base Media
Codec ID : isom
File size : 347 MiB
Duration : 24mn 42s
Overall bit rate mode : Variable
Overall bit rate : 1 964 Kbps
Encoded date : UTC 2014-10-10 19:32:41
Tagged date : UTC 2014-10-10 19:32:41
Writing application : Yamb 2.1.0.0
Video
ID : 1
Format : AVC
Format/Info : Advanced Video Codec
Format profile : High@L4
Format settings, CABAC : Yes
Format settings, ReFrames : 6 frames
Codec ID : avc1
Codec ID/Info : Advanced Video Coding
Duration : 24mn 42s
Bit rate : 1 776 Kbps
Maximum bit rate : 7 239 Kbps
Width : 1 280 pixels
Height : 720 pixels
Display aspect ratio : 16:9
Frame rate mode : Constant
Frame rate : 23.976 fps
Color space : YUV
Chroma subsampling : 4:2:0
Bit depth : 8 bits
Scan type : Progressive
Bits/(Pixel*Frame) : 0.080
Stream size : 312 MiB (90%)
Title : I 
Writing library : x264 core 120 r2120 0c7dab9
Encoding settings : cabac=1 / ref=6 / deblock=1:1:1 / analyse=0x3:0x113 / me=umh / subme=8 / psy=1 / psy_rd=0.40:0.00 / mixed_ref=1 / me_range=16 / chroma_me=1 / trellis=1 / 8x8dct=1 / cqm=0 / deadzone=21,11 / fast_pskip=1 / chroma_qp_offset=-2 / threads=4 / sliced_threads=0 / nr=0 / decimate=1 / interlaced=0 / bluray_compat=0 / constrained_intra=0 / bframes=3 / b_pyramid=2 / b_adapt=2 / b_bias=0 / direct=3 / weightb=1 / open_gop=0 / weightp=2 / keyint=250 / keyint_min=23 / scenecut=40 / intra_refresh=0 / rc_lookahead=50 / rc=2pass / mbtree=1 / bitrate=1776 / ratetol=1.0 / qcomp=0.60 / qpmin=0 / qpmax=69 / qpstep=4 / cplxblur=20.0 / qblur=0.5 / vbv_maxrate=3552 / vbv_bufsize=8880 / nal_hrd=none / ip_ratio=1.40 / aq=1:0.60
Encoded date : UTC 2014-10-10 19:04:56
Tagged date : UTC 2014-10-10 19:32:43

Audio
ID : 2
Format : AAC
Format/Info : Advanced Audio Codec
Format profile : LC
Codec ID : 40
Duration : 24mn 42s
Bit rate mode : Variable
Bit rate : 192 Kbps
Maximum bit rate : 196 Kbps
Channel(s) : 2 channels
Channel positions : Front: L R
Sampling rate : 48.0 KHz
Compression mode : Lossy
Stream size : 33.9 MiB (10%)
Language : Russian
Encoded date : UTC 2014-10-10 19:32:43
Tagged date : UTC 2014-10-10 19:32:43
Описание: Как здорово, когда можно реализовать детские мечты! Пять девчонок из клуба анимации школы Каминояма не мыслили иной судьбы, кроме аниме-индустрии – и у них получилось! Сидзука стала сэйю, Миса – оператором компьютерной графики, студентка Мидори – сценаристом-фрилансером, а еще двое пробились на знаменитую студию Мусасино. Эма, как талантливая рисовальщица, получила должность художника-аниматора, а энергичная Аой стала помощницей продюсера, часто применяя свои недюжинные водительские навыки для обгона конкурентов. А как еще?! Вот только сказкой жизнь новичков японского шоу-бизнеса не назовешь: каждая из героинь начинает с низов и работает на износ, ибо иначе не то что пробиться – удержаться на месте не получится. Особенно это касается Аой и Эмы, членов сплоченной команды, чья жизнь похожа на вечную смесь праздника и пожара – сроки горят, идеи фонтанируют, а творческие подвиги часто вызваны чьей-то глупостью и безалаберностью. Что поделать – шедевры, ложащиеся в «белую коробку» готовой продукции, чаще рождаются в сумасшедшем доме, чем в башне из слоновой кости!
© Hollow, World Art
info [Профиль]  [ЛС] 
Показать сообщения:    
Ответить на тему

Текущее время: 10-Дек 09:05

Часовой пояс: GMT + 4



Вы не можете начинать темы
Вы не можете отвечать на сообщения
Вы не можете редактировать свои сообщения
Вы не можете удалять свои сообщения
Вы не можете голосовать в опросах
Вы не можете прикреплять файлы к сообщениям
Вы не можете скачивать файлы