Ошибка

Повторная жизнь / ReLIFE (TV) [1-13 из 13] [2016] [Комедия, повседневность, романтика, сэйнэн, школа] [HDTV720p] [Любительское]

Ответить на тему
 
Автор Сообщение

Chel90RUS

Пол: Пол:Муж

Стаж: 5 лет 5 месяцев

Сообщений: 413

Россия
Рейтинг

post 22-Июл-2016 19:40 0[+]

[Цитировать] 

pic="http://s010.radikal.ru/i311/1607/fb/233d6fa6782b.jpg"
Повторная жизнь
ReLIFE / リライフ

Год выпуска: 2016
Жанр: Комедия, повседневность, романтика, сэйнэн, школа
Страна: Япония
Тип: HDTV
Продолжительность: 13 серий ~ 25 мин
Дата выпуска: 01.07.2016
Режиссер: Косака Томо
Автор оригинала / Сценарист: Соу Яёи
Студия: TMS
Озвучено: Гамлетка Цезаревна, 9й Неизвестный
Перевод: FooBoo
Тайминг и работа со звуком: Noah
Формат файла: Mp4
Аудио: AAC 48000Hz stereo 192kbps [A: English [eng] (aac lc, 48000 Hz, stereo, 192 kb/s)]
Видео: MPEG4 Video (H264) 1280x720 23.976fps 1414kbps [V: h264 main L4.1, yuv420p, 1280x720, 1414 kb/s]

General
Complete name : \[AniDub]_ReLIFE_[01]_[1280x720_x264]_[Hamletka_Cezarevna_9th_Unknown].mp4
Format : MPEG-4
Format profile : Base Media
Codec ID : isom
File size : 277 MiB
Duration : 24mn 30s
Overall bit rate mode : Variable
Overall bit rate : 1 583 Kbps
Encoded date : UTC 2016-07-01 21:07:35
Tagged date : UTC 2016-07-01 21:07:35

Video
ID : 1
Format : AVC
Format/Info : Advanced Video Codec
Format profile : Main@L4.1
Format settings, CABAC : Yes
Format settings, ReFrames : 4 frames
Codec ID : avc1
Codec ID/Info : Advanced Video Coding
Duration : 24mn 0s
Bit rate : 1 414 Kbps
Maximum bit rate : 8 598 Kbps
Width : 1 280 pixels
Height : 720 pixels
Display aspect ratio : 16:9
Frame rate mode : Variable
Frame rate : 23.976 fps
Minimum frame rate : 8.772 fps
Maximum frame rate : 24.390 fps
Color space : YUV
Chroma subsampling : 4:2:0
Bit depth : 8 bits
Scan type : Progressive
Bits/(Pixel*Frame) : 0.064
Stream size : 243 MiB (88%)
Writing library : x264 core 148 r2705 3f5ed56
Encoding settings : cabac=1 / ref=3 / deblock=1:0:0 / analyse=0x1:0x111 / me=hex / subme=7 / psy=1 / psy_rd=1.00:0.00 / mixed_ref=1 / me_range=16 / chroma_me=1 / trellis=1 / 8x8dct=0 / cqm=0 / deadzone=21,11 / fast_pskip=1 / chroma_qp_offset=-2 / threads=12 / lookahead_threads=2 / sliced_threads=0 / nr=0 / decimate=1 / interlaced=0 / bluray_compat=0 / constrained_intra=0 / bframes=3 / b_pyramid=2 / b_adapt=1 / b_bias=0 / direct=1 / weightb=1 / open_gop=0 / weightp=2 / keyint=240 / keyint_min=1 / scenecut=40 / intra_refresh=0 / rc_lookahead=40 / rc=crf / mbtree=1 / crf=20.0 / qcomp=0.60 / qpmin=0 / qpmax=69 / qpstep=4 / ip_ratio=1.40 / aq=1:1.50
Encoded date : UTC 2016-07-01 15:34:16
Tagged date : UTC 2016-07-01 21:08:00
Color range : Limited
Color primaries : BT.709
Transfer characteristics : BT.709
Matrix coefficients : BT.709

Audio
ID : 2
Format : AAC
Format/Info : Advanced Audio Codec
Format profile : LC
Codec ID : 40
Duration : 24mn 30s
Bit rate mode : Variable
Bit rate : 192 Kbps
Maximum bit rate : 201 Kbps
Channel(s) : 2 channels
Channel positions : Front: L R
Sampling rate : 48.0 KHz
Compression mode : Lossy
Stream size : 33.7 MiB (12%)
Language : English
Encoded date : UTC 2016-07-01 21:07:58
Tagged date : UTC 2016-07-01 21:08:00


Описание:Эта история об Арате Кайзаки, 27-летнем безработном мужчине, который потерпел неудачу в каждом собеседовании после того, как был уволен с предыдущего места работы. Его жизнь меняет встреча с Рё Йоакэ из научно-исследовательского института «Повторная жизнь», который предложил Арате препарат, способный изменить его внешность, сделав снова 17-летним, и стать объектом эксперимента на один год. Таким образом он начинает свою жизнь заново в качестве ученика старшей школы.
Добавлены 11-13 серии 31/07/2016
info [Профиль]  [ЛС] 

Fureo

Пол: Пол:Муж

Стаж: 2 года 5 месяцев

Сообщений: 4

Россия
Рейтинг

post 22-Июл-2016 23:48 (спустя 4 часа) [-]2[+]

[Цитировать] 

Аллилуйя, вышло годное аниме. Посмотрел залпом все серии. Рекомендую.
info [Профиль]  [ЛС] 

Chel90RUS

Пол: Пол:Муж

Стаж: 5 лет 5 месяцев

Сообщений: 413

Россия
Рейтинг

post 31-Июл-2016 02:34 (спустя 8 дней) [-]0[+]

[Цитировать] 

Добавлены 11-13 серии 31/07/2016

_________________
info [Профиль]  [ЛС] 
Показать сообщения:    
Ответить на тему

Текущее время: 04-Дек 03:50

Часовой пояс: GMT + 4



Вы не можете начинать темы
Вы не можете отвечать на сообщения
Вы не можете редактировать свои сообщения
Вы не можете удалять свои сообщения
Вы не можете голосовать в опросах
Вы не можете прикреплять файлы к сообщениям
Вы не можете скачивать файлы