Ошибка

До окончания фрилича осталось:


Маленький домработник / Shounen Maid (TV) [1-12 из 12] [2016] [драма, школа, повседневность] [HDTV720p] [Любительский]

Ответить на тему
 
Автор Сообщение

Chel90RUS

Пол: Пол:Муж

Стаж: 5 лет 5 месяцев

Сообщений: 413

Россия
Рейтинг

post 09-Июл-2016 20:10 0[+]

[Цитировать] 

pic="http://static2.anidub.com/tracker/poster/d9f9aedd3b.jpg"
Маленький домработник
Shounen Maid / Shonen Maid / 少年メイド

Год выпуска: 2016
Жанр: Драма, школа, повседневность
Страна: Япония
Тип: HDTV
Продолжительность: 12 серий ~ 25 мин
Дата выпуска: c 08.04.2016 по 01.07.2016
Режиссер: Ямамото Юсукэ
Автор оригинала / Сценарист: Ототатибана
Студия: 8bit
Озвучено: Ancord, Jade
Перевод: sanyalitvyak, Seiya Loveless, GoggerToy
Тайминг и работа со звуком: Noah, Sumatra
Формат файла: Mp4
Аудио: AAC 48000Hz stereo 192kbps [A: Ancord & Jade [rus] (aac lc, 48000 Hz, stereo, 192 kb/s)]
Видео: MPEG4 Video (H264) 1280x720 23.976fps 1363kbps [V: SM 01 AD [rus] (h264 main L4.1, yuv420p, 1280x720, 1363 kb/s)]

General
Complete name : \[AniDub]_Shounen_Maid_-_01_[1280x720_h264_AAC]_[Ancord_&_Jade].mp4
Format : MPEG-4
Format profile : JVT
Codec ID : avc1
File size : 273 MiB
Duration : 24mn 29s
Overall bit rate mode : Variable
Overall bit rate : 1 560 Kbps
Encoded date : UTC 2016-04-10 17:10:37
Tagged date : UTC 2016-04-10 17:10:37
Writing application : Yamb 2.1.0.0

Video
ID : 1
Format : AVC
Format/Info : Advanced Video Codec
Format profile : Main@L4.1
Format settings, CABAC : Yes
Format settings, ReFrames : 4 frames
Codec ID : avc1
Codec ID/Info : Advanced Video Coding
Duration : 24mn 29s
Bit rate : 1 364 Kbps
Maximum bit rate : 9 887 Kbps
Width : 1 280 pixels
Height : 720 pixels
Display aspect ratio : 16:9
Frame rate mode : Constant
Frame rate : 23.976 fps
Color space : YUV
Chroma subsampling : 4:2:0
Bit depth : 8 bits
Scan type : Progressive
Bits/(Pixel*Frame) : 0.062
Stream size : 239 MiB (87%)
Title : SM 01 AD
Writing library : x264 core 148 r2665 a01e339
Encoding settings : cabac=1 / ref=3 / deblock=1:0:0 / analyse=0x1:0x111 / me=hex / subme=7 / psy=1 / psy_rd=1.00:0.00 / mixed_ref=1 / me_range=16 / chroma_me=1 / trellis=1 / 8x8dct=0 / cqm=0 / deadzone=21,11 / fast_pskip=1 / chroma_qp_offset=-2 / threads=12 / lookahead_threads=2 / sliced_threads=0 / nr=0 / decimate=1 / interlaced=0 / bluray_compat=0 / constrained_intra=0 / bframes=3 / b_pyramid=2 / b_adapt=1 / b_bias=0 / direct=1 / weightb=1 / open_gop=0 / weightp=2 / keyint=240 / keyint_min=1 / scenecut=40 / intra_refresh=0 / rc_lookahead=40 / rc=crf / mbtree=1 / crf=20.0 / qcomp=0.60 / qpmin=0 / qpmax=69 / qpstep=4 / ip_ratio=1.40 / aq=1:1.50
Language : Russian
Encoded date : UTC 2016-04-07 17:47:44
Tagged date : UTC 2016-04-10 17:10:41
Color range : Limited
Color primaries : BT.709
Transfer characteristics : BT.709
Matrix coefficients : BT.709

Audio
ID : 2
Format : AAC
Format/Info : Advanced Audio Codec
Format profile : LC
Codec ID : 40
Duration : 24mn 29s
Bit rate mode : Variable
Bit rate : 192 Kbps
Maximum bit rate : 196 Kbps
Channel(s) : 2 channels
Channel positions : Front: L R
Sampling rate : 48.0 KHz
Compression mode : Lossy
Stream size : 33.7 MiB (12%)
Title : Ancord & Jade
Language : Russian
Encoded date : UTC 2016-04-10 17:10:40
Tagged date : UTC 2016-04-10 17:10:41


Описание:Чихиро остался без дома, поскольку его мама умерла, а родственников у парнишки нет. Он не знает, что же ему делать дальше, но тут ему встречается брат его матери. Дядя планирует взять племянничка под своё крыло и заботиться о нём...или всё совсем наоборот?
info [Профиль]  [ЛС] 

Ekimminu

Пол: Пол:Муж

Стаж: 6 лет 9 месяцев

Сообщений: 22

Россия
Рейтинг

post 09-Июл-2016 23:46 (спустя 3 часа) [-]0[+]

[Цитировать] 

Цитата:

Описание:Чихиро остался без дома, поскольку его мама умерла, а родственников у парнишки нет. Он не знает, что же ему делать дальше, но тут ему встречается брат его матери. Дядя планирует взять племянничка под своё крыло и заботиться о нём...или всё совсем наоборот?
Мне кажется или в описание противоречие?
info [Профиль]  [ЛС] 

Chel90RUS

Пол: Пол:Муж

Стаж: 5 лет 5 месяцев

Сообщений: 413

Россия
Рейтинг

post 10-Июл-2016 00:00 (спустя 14 минут) [-]-1[+]

[Цитировать] 

Ekimminu писал(а):

Цитата:

Описание:Чихиро остался без дома, поскольку его мама умерла, а родственников у парнишки нет. Он не знает, что же ему делать дальше, но тут ему встречается брат его матери. Дядя планирует взять племянничка под своё крыло и заботиться о нём...или всё совсем наоборот?
Мне кажется или в описание противоречие?
Так Чихиро не знал ,что у него есть дядя

_________________
info [Профиль]  [ЛС] 

6Y6JIiK

Пол: Пол:Муж

Стаж: 6 лет 7 месяцев

Сообщений: 71

Польша
Рейтинг

post 10-Июл-2016 10:55 (спустя 10 часов) [-]0[+]

[Цитировать] 

как анимеха? стоит смотреть?
info [Профиль]  [ЛС] 
Показать сообщения:    
Ответить на тему

Текущее время: 10-Дек 18:43

Часовой пояс: GMT + 4



Вы не можете начинать темы
Вы не можете отвечать на сообщения
Вы не можете редактировать свои сообщения
Вы не можете удалять свои сообщения
Вы не можете голосовать в опросах
Вы не можете прикреплять файлы к сообщениям
Вы не можете скачивать файлы