Ошибка

Вечно ленивый Танака / Tanaka-kun wa Itsumo Kedaruge (TV) [1-12 из 12] [2016] [Комедия, школа, повседневность] [HDTV720p] [Любительский]

Ответить на тему
 
Автор Сообщение

Chel90RUS

Пол: Пол:Муж

Стаж: 5 лет 5 месяцев

Сообщений: 413

Россия
Рейтинг

post 08-Июл-2016 11:55 0[+]

[Цитировать] 

pic="http://static2.anidub.com/tracker/poster/6606567fcf.jpg"
Вечно ленивый Танака
Tanaka-kun wa Itsumo Kedaruge / Tanaka-kun is Always Listless / 田中くんはいつもけだるげ

Год выпуска: 2016
Жанр: Комедия, школа, повседневность
Страна: Япония
Тип: HDTV
Продолжительность: 12 серий ~ 25 мин
Дата выпуска: c 09.04.2016 по 25.06.2016
Режиссер: Кавацура Синъя
Автор оригинала / Сценарист: Уда Нодзоми
Студия: Silver Link
Озвучено: Ancord, Jade
Перевод: Miss Sherlockian, YakuSub Studio
Тайминг и работа со звуком: Noah
Формат файла: Mp4
Аудио: AAC 48000Hz stereo 192kbps [A: English [eng] (aac lc, 48000 Hz, stereo, 192 kb/s)]
Видео: MPEG4 Video (H264) 1280x720 23.976fps 1766kbps [V: h264 high L4.0, yuv420p, 1280x720, 1766 kb/s]

General
Complete name : \[AniDub]_Tanaka-kun_wa_Itsumo_Kedaruge_[01]_[720p_x264_Aac]_[Ancord_Jade].mp4
Format : MPEG-4
Format profile : Base Media
Codec ID : isom
File size : 334 MiB
Duration : 23mn 48s
Overall bit rate mode : Variable
Overall bit rate : 1 963 Kbps
Encoded date : UTC 2016-04-11 11:15:20
Tagged date : UTC 2016-04-11 11:15:20
Writing application : Yamb 2.1.0.0
Video
ID : 1
Format : AVC
Format/Info : Advanced Video Codec
Format profile : High@L4
Format settings, CABAC : Yes
Format settings, ReFrames : 6 frames
Codec ID : avc1
Codec ID/Info : Advanced Video Coding
Duration : 23mn 48s
Bit rate : 1 776 Kbps
Maximum bit rate : 8 568 Kbps
Width : 1 280 pixels
Height : 720 pixels
Display aspect ratio : 16:9
Frame rate mode : Constant
Frame rate : 23.976 fps
Color space : YUV
Chroma subsampling : 4:2:0
Bit depth : 8 bits
Scan type : Progressive
Bits/(Pixel*Frame) : 0.080
Stream size : 301 MiB (90%)
Writing library : x264 core 120 r2120 0c7dab9
Encoding settings : cabac=1 / ref=6 / deblock=1:1:1 / analyse=0x3:0x113 / me=umh / subme=8 / psy=1 / psy_rd=0.40:0.00 / mixed_ref=1 / me_range=16 / chroma_me=1 / trellis=1 / 8x8dct=1 / cqm=0 / deadzone=21,11 / fast_pskip=1 / chroma_qp_offset=-2 / threads=4 / sliced_threads=0 / nr=0 / decimate=1 / interlaced=0 / bluray_compat=0 / constrained_intra=0 / bframes=3 / b_pyramid=2 / b_adapt=2 / b_bias=0 / direct=3 / weightb=1 / open_gop=0 / weightp=2 / keyint=250 / keyint_min=23 / scenecut=40 / intra_refresh=0 / rc_lookahead=50 / rc=2pass / mbtree=1 / bitrate=1776 / ratetol=1.0 / qcomp=0.60 / qpmin=0 / qpmax=69 / qpstep=4 / cplxblur=20.0 / qblur=0.5 / vbv_maxrate=3552 / vbv_bufsize=8880 / nal_hrd=none / ip_ratio=1.40 / aq=1:0.60
Encoded date : UTC 2016-04-11 11:15:20
Tagged date : UTC 2016-04-11 11:15:23

Audio
ID : 2
Format : AAC
Format/Info : Advanced Audio Codec
Format profile : LC
Codec ID : 40
Duration : 23mn 48s
Bit rate mode : Variable
Bit rate : 192 Kbps
Maximum bit rate : 196 Kbps
Channel(s) : 2 channels
Channel positions : Front: L R
Sampling rate : 48.0 KHz
Compression mode : Lossy
Stream size : 32.7 MiB (10%)
Language : English
Encoded date : UTC 2016-04-11 11:15:22
Tagged date : UTC 2016-04-11 11:15:23


Описание:Две абсолютно непохожие личности: Танака, способный спать 24 часа в сутки, и Оота, отличающийся от остальных своей активностью и ответственностью. Такие люди должны бесить друг друга, но, не смотря на это, они друзья. До чего доведет эта дружба? Посмотрим...
info [Профиль]  [ЛС] 

Genom09

Пол: Пол:Муж

Стаж: 3 года 7 месяцев

Сообщений: 62

Россия
Рейтинг

post 10-Окт-2016 21:48 (спустя 3 месяца 2 дня) [-]0[+]

[Цитировать] 

кукукукукукукукуку

_________________
info [Профиль]  [ЛС] 
Показать сообщения:    
Ответить на тему

Текущее время: 09-Дек 06:04

Часовой пояс: GMT + 4



Вы не можете начинать темы
Вы не можете отвечать на сообщения
Вы не можете редактировать свои сообщения
Вы не можете удалять свои сообщения
Вы не можете голосовать в опросах
Вы не можете прикреплять файлы к сообщениям
Вы не можете скачивать файлы