Ошибка

Связанные / Kiznaiver (TV) [1-12 из 12] [2016] [Приключения, драма, фантастика, триллер] [HDTV720p] [Профессиональный (Многоголосый)]

Ответить на тему
 
Автор Сообщение

Chel90RUS

Пол: Пол:Муж

Стаж: 5 лет 5 месяцев

Сообщений: 413

Россия
Рейтинг

post 01-Июл-2016 14:14 0[+]

[Цитировать] 

pic="http://static2.anidub.com/tracker/poster/8b490c8759.jpg"
Связанные
Kiznaiver / キズナイーバー

Год выпуска: 2016
Жанр: Приключения, драма, фантастика, триллер
Страна: Япония
Тип: HDTV
Продолжительность: 12 серий ~ 25 мин
Дата выпуска: c 09.04.2016 по 25.06.2016
Режиссер: Кобаяси Хироси
Автор оригинала / Сценарист: Окада Мари
Озвучено: Студийная банда AD
Торгиль, Влад Дуров, Demetra, Esther, Trina_D, BalFor, JAM, Давид Петросян, Томас Шлеккер, Cuba77
Перевод: Cаюри
Тайминг и работа со звуком: Shurak
Студия: Trigger

Видео: MPEG4 Video (H264) 1280x720 23.976fps 2845kbps [V: 264 (h264 high L4.1, yuv420p, 1280x720, 2845 kb/s)]
Аудио: AAC 48000Hz stereo 162kbps [A: aac lc, 48000 Hz, stereo, 162 kb/s]


General
Complete name : \[AniDub]_Kiznaiver_[01]_[720p_x264_Aac]_[ADStudio].mp4
Format : MPEG-4
Format profile : Base Media
Codec ID : isom
File size : 517 MiB
Duration : 24mn 5s
Overall bit rate mode : Variable
Overall bit rate : 3 001 Kbps
Encoded date : UTC 2016-06-29 21:47:24
Tagged date : UTC 2016-06-29 21:47:24

Video
ID : 1
Format : AVC
Format/Info : Advanced Video Codec
Format profile : High@L4.1
Format settings, CABAC : Yes
Format settings, ReFrames : 4 frames
Codec ID : avc1
Codec ID/Info : Advanced Video Coding
Duration : 23mn 59s
Bit rate : 2 845 Kbps
Maximum bit rate : 25.0 Mbps
Width : 1 280 pixels
Height : 720 pixels
Display aspect ratio : 16:9
Frame rate mode : Constant
Frame rate : 23.976 fps
Color space : YUV
Chroma subsampling : 4:2:0
Bit depth : 8 bits
Scan type : Progressive
Bits/(Pixel*Frame) : 0.129
Stream size : 488 MiB (94%)
Title : 264
Writing library : x264 core 129 r2245+729M 1a52e03
Encoding settings : cabac=1 / ref=4 / deblock=1:1:-1 / analyse=0x3:0x113 / me=umh / subme=9 / psy=1 / fade_compensate=0.00 / psy_rd=1.00:0.00 / mixed_ref=1 / me_range=24 / chroma_me=1 / trellis=2 / 8x8dct=1 / cqm=0 / deadzone=21,11 / fast_pskip=1 / chroma_qp_offset=-2 / threads=8 / lookahead_threads=1 / sliced_threads=0 / nr=0 / decimate=1 / interlaced=0 / bluray_compat=0 / constrained_intra=0 / fgo=0 / bframes=9 / b_pyramid=2 / b_adapt=2 / b_bias=0 / direct=1 / weightb=1 / open_gop=0 / weightp=2 / keyint=240 / keyint_min=24 / scenecut=40 / intra_refresh=0 / rc=crf / mbtree=0 / crf=18.0 / qcomp=0.72 / qpmin=0 / qpmax=69 / qpstep=4 / ip_ratio=1.40 / pb_ratio=1.30 / aq=1:0.85
Encoded date : UTC 2016-04-09 19:30:05
Tagged date : UTC 2016-06-29 21:48:24
Color range : Limited
Color primaries : BT.709
Transfer characteristics : BT.709
Matrix coefficients : BT.709

Audio
ID : 2
Format : AAC
Format/Info : Advanced Audio Codec
Format profile : LC
Codec ID : 40
Duration : 24mn 5s
Bit rate mode : Variable
Bit rate : 163 Kbps
Maximum bit rate : 229 Kbps
Channel(s) : 2 channels
Channel positions : Front: L R
Sampling rate : 48.0 KHz
Compression mode : Lossy
Stream size : 28.0 MiB (5%)
Encoded date : UTC 2016-06-29 21:48:18
Tagged date : UTC 2016-06-29 21:48:24

Описание:В будущем свое место среди достижений инновационных технологий займет недоработанная система «Кизуна» (яп. 絆 — «связь»). Смысл ее в том, что, если человек, в которого вживлен «Связь»-чип, получает ранение, другие люди с такими же чипами оказываются ранены идентичным образом. В буквальном смысле связывая людей через раны, создатели системы хотят достичь мира во всем мире. Людей-обладателей чипа «Связь» называют связанными.
События аниме развиваются в вымышленном японском городе Сугомори. Город этот непростой, а возведенный на мелиорированных землях, и население которого стремительно сокращается.
Недавно переведенная в новую школу Норико Сонозаки сообщает своему однокласснику, Кацухире Агате, что планы на его летние каникулы немного подкорректировали — он избран в качестве связанного. С этих пор юноша будет связан с одноклассниками-связанными. Но есть одна проблема: все они ведут непредсказуемый образ жизни, что в корне не устраивает нелюдимого Кацухиру.
info [Профиль]  [ЛС] 

Alexxator

Стаж: 6 лет 2 месяца

Сообщений: 883

Рейтинг

post 02-Июл-2016 21:55 (спустя 1 день 7 часов) [-]1[+]

[Цитировать] 

связывая людей через раны
террористы будут счастливы. А в мульте они есть?
info [Профиль]  [ЛС] 
Показать сообщения:    
Ответить на тему

Текущее время: 09-Дек 19:36

Часовой пояс: GMT + 4



Вы не можете начинать темы
Вы не можете отвечать на сообщения
Вы не можете редактировать свои сообщения
Вы не можете удалять свои сообщения
Вы не можете голосовать в опросах
Вы не можете прикреплять файлы к сообщениям
Вы не можете скачивать файлы