Ошибка

CBS | Разработка на C# под Android. Быстрый старт (2014) PCRec

Ответить на тему
 
Автор Сообщение

NIKITOZ52

Пол: Пол:Муж

Стаж: 4 года 9 месяцев

Сообщений: 34

Россия
Рейтинг

post 26-Июн-2016 16:22 0[+]

[Цитировать] 


CBS | Разработка на C# под Android. Быстрый старт (2014) PCRec
Автор (режиссер): CBS
Жанр: Программирование, C#
Продолжительность: 02:00:00
Качество видео: PCRec
Видеокодек: AVC
Битрейт видео: ~1082 kb/s 30,00 FPS
Размер кадра: 1280 x 888
Аудиокодек: AAC 2.0
Битрейт аудио: 158 kb/s (CBR), 2 Ch, 44100 Hz

Описание:
Курс научит Вас программировать под платформу Андроид, используя язык C#. После нашего курса Вы станете частью сообщества Android-программистов, научитесь создавать программы, которые смогут работать на любом мобильном устройстве, используя камеру, мобильную сеть, GPS, и другие компоненты мобильных устройств. Используя язык программирования C# для создания мобильных программ, Вы получаете все преимущества .NET Framework`а, что разрешит быстро и кaчественно создавать мобильные приложения, повышая Вашу конкурентоспособность как программиста, пишущего для ОС Андроид.
• Конфигурировать среду для разработки мобильных приложений под Андроид.
• Разбираться в структуре проекта под Android, знать компоненты программы.
• Настраивать эмулятор и запускать приложение на эмуляторе
• Разворачивать приложение на физическом устройстве.
• Вступление.
• Mono for Android. Общая архитектура приложения.
• Установка необходимого ПО для программирования под Андроид на языке C#.
• Знакомство с Xamarin Studio.
• Android Application – разбор структуры проекта.
• Отладка программы.
• Запуск программы в эмуляторе.
• Запуск программы на устройстве.

Код:

Общее
Полное имя                               : C:\Разработка на C# под Android. Быстрый старт.[tapochek.net]
Формат                                   : MPEG-4
Профиль формата                          : Base Media / Version 2
Идентификатор кодека                     : mp42
Размер файла                             : 474 Мбайт
Продолжительность                        : 53 м.
Режим общего битрейта                    : Переменный
Общий поток                              : 1243 Кбит/сек
Дата кодирования                         : UTC 2014-06-28 11:05:08
Дата пометки                             : UTC 2014-06-28 11:05:08

Видео
Идентификатор                            : 1
Формат                                   : AVC
Формат/Информация                        : Advanced Video Codec
Профиль формата                          : Main@L3.2
Параметр CABAC формата                   : Да
Параметр ReFrames формата                : 3 кадра
Идентификатор кодека                     : avc1
Идентификатор кодека/Информация          : Advanced Video Coding
Продолжительность                        : 53 м.
Продолжительность оригинала              : 53 м.
Битрейт                                  : 1082 Кбит/сек
Ширина                                   : 1280 пикселей
Высота                                   : 888 пикселей
Соотношение сторон                       : 1,441
Режим частоты кадров                     : Переменный
Частота кадров                           : 30,000 кадров/сек
Минимальная частота кадров               : 30,000 кадров/сек
Максимальная частота кадров              : 30,030 кадров/сек
Стандарт вещания                         : NTSC
Цветовое пространство                    : YUV
Субдискретизация насыщенности            : 4:2:0
Битовая глубина                          : 8 бит
Тип развёртки                            : Прогрессивная
Бит/(Пиксели*Кадры)                      : 0.032
Размер потока                            : 413 Мбайт (87%)
Размер потока оригинала                  : 413 Мбайт (87%)
Язык                                     : English
Дата кодирования                         : UTC 2014-06-28 11:05:09
Дата пометки                             : UTC 2014-06-28 11:05:09
colour_range                             : Limited
mdhd_Duration                            : 3199700

Аудио
Идентификатор                            : 2
Формат                                   : AAC
Формат/Информация                        : Advanced Audio Codec
Профиль формата                          : LC
Идентификатор кодека                     : 40
Продолжительность                        : 53 м.
Продолжительность оригинала              : 53 м.
Вид битрейта                             : Переменный
Битрейт                                  : 158 Кбит/сек
Максимальный битрейт                     : 215 Кбит/сек
Каналы                                   : 2 канала
Расположение каналов                     : Front: L R
Частота                                  : 44,1 КГц
Метод сжатия                             : С потерями
Размер потока                            : 60,1 Мбайт (13%)
Размер потока оригинала                  : 60,1 Мбайт (13%)
Язык                                     : English
Дата кодирования                         : UTC 2014-06-28 11:05:09
Дата пометки                             : UTC 2014-06-28 11:05:09
mdhd_Duration                            : 3199733
info [Профиль]  [ЛС] 

post 28-Июн-2016 02:35 (спустя 1 день 10 часов) [-]0[+]

Топик был перенесен из форума Анонсы в форум Обучающие видеоматериалы

Syrax
 

Fojrek

Пол: Пол:Муж

Стаж: 2 года 11 месяцев

Сообщений: 4

Украина
Рейтинг

post 28-Июн-2016 10:47 (спустя 1 день 18 часов) [-]0[+]

[Цитировать] 

Я рад за тех 11 человек,которые смогли скачать,но как быть с остальными?
info [Профиль]  [ЛС] 

NIKITOZ52

Пол: Пол:Муж

Стаж: 4 года 9 месяцев

Сообщений: 34

Россия
Рейтинг

post 28-Июн-2016 11:36 (спустя 48 минут) [-]0[+]

[Цитировать] 

Fojrek писал(а):

Я рад за тех 11 человек,которые смогли скачать,но как быть с остальными?
Раздаю круглосуточно 24\7 kolob_111
Возможно кнопка скачать торрент-файл была не активна, так как модератор не проверил раздачу.

_________________


info [Профиль]  [ЛС] 

Fojrek

Пол: Пол:Муж

Стаж: 2 года 11 месяцев

Сообщений: 4

Украина
Рейтинг

post 28-Июн-2016 13:22 (спустя 1 час 46 минут) [-]0[+]

[Цитировать] 

NIKITOZ52 писал(а):

Fojrek писал(а):

Я рад за тех 11 человек,которые смогли скачать,но как быть с остальными?
Раздаю круглосуточно 24\7 kolob_111
Возможно кнопка скачать торрент-файл была не активна, так как модератор не проверил раздачу.
Нет,боюсь были лишь одни линчеры..)
info [Профиль]  [ЛС] 

LORDLOGOS

Пол: Пол:Муж

Стаж: 5 лет 3 месяца

Сообщений: 67

Россия
Рейтинг

post 28-Июн-2016 14:21 (спустя 59 минут) [-]0[+]

[Цитировать] 

Эффективные уроки?
info [Профиль]  [ЛС] 

NIKITOZ52

Пол: Пол:Муж

Стаж: 4 года 9 месяцев

Сообщений: 34

Россия
Рейтинг

post 28-Июн-2016 15:39 (спустя 1 час 17 минут) [-]0[+]

[Цитировать] 

LORDLOGOS писал(а):

Эффективные уроки?
Полностью не смотрел, так как и так обладаю знаниями...

На мой взгляд достойные внимания уроки по C#

_________________


info [Профиль]  [ЛС] 
Показать сообщения:    
Ответить на тему

Текущее время: 08-Дек 20:10

Часовой пояс: GMT + 4



Вы не можете начинать темы
Вы не можете отвечать на сообщения
Вы не можете редактировать свои сообщения
Вы не можете удалять свои сообщения
Вы не можете голосовать в опросах
Вы не можете прикреплять файлы к сообщениям
Вы не можете скачивать файлы