Ошибка

Гора Священного Меча: Пир звёздной пыли / Reikenzan: Hoshikuzu-tachi no Utage (TV-1) [1-12 из 12] [2016] [Приключения, комедия, фентези] [HDTVRip720p] [Любительский]

Ответить на тему
 
Автор Сообщение

Chel90RUS

Пол: Пол:Муж

Стаж: 5 лет 5 месяцев

Сообщений: 413

Россия
Рейтинг

post 24-Июн-2016 00:47 1[+]

[Цитировать] 

pic="http://s001.radikal.ru/i193/1606/9f/2ecf06842ddb.jpg"
Гора Священного Меча: Пир звёздной пыли
Reikenzan: Hoshikuzu-tachi no Utage / 霊剣山 星屑たちの宴 / Spirit Blade Mountain

Год выпуска: 2016
Жанр: Приключения, комедия, фентези
Страна: Япония
Тип: HDTVRip
Продолжительность: 12 серий - 25 мин
Дата выпуска: c 09.01.2016 по 26.03.2016
Режиссер: Ику Судзуки
Автор оригинала / Сценарист: Го Ван Би Ся
Озвучено: Гамлетка Цезаревна, 9й Неизвестный
Перевод: Skirata [01-11], [12] Хаттори (AOS Team)
Тайминг и работа со звуком: 9й Неизвестный
Студия: Studio Deen
Видео: MPEG4 Video (H264) 1280x720 23.976fps 2030kbps [V: h264 high L4.1, yuv420p, 1280x720, 2030 kb/s]
Аудио: Dolby AC3 48000Hz stereo 448kbps [A: ac3, 48000 Hz, stereo, 448 kb/s]


General
Complete name : [AniDub]_Reikenzan_-_Hoshikuzu-tachi_no_Utage_[01]_[1280x720_x264]_[Hamletka_Cezarevna_9th_Unknown].mp4
Format : MPEG-4
Format profile : Base Media
Codec ID : isom
File size : 426 MiB
Duration : 24mn 0s
Overall bit rate : 2 480 Kbps
Encoded date : UTC 2016-01-21 16:11:48
Tagged date : UTC 2016-01-21 16:11:48

Video
ID : 1
Format : AVC
Format/Info : Advanced Video Codec
Format profile : High@L4.1
Format settings, CABAC : Yes
Format settings, ReFrames : 4 frames
Codec ID : avc1
Codec ID/Info : Advanced Video Coding
Duration : 24mn 0s
Bit rate : 2 030 Kbps
Maximum bit rate : 7 990 Kbps
Width : 1 280 pixels
Height : 720 pixels
Display aspect ratio : 16:9
Frame rate mode : Constant
Frame rate : 23.976 fps
Color space : YUV
Chroma subsampling : 4:2:0
Bit depth : 8 bits
Scan type : Progressive
Bits/(Pixel*Frame) : 0.092
Stream size : 349 MiB (82%)
Writing library : x264 core 129 r2245+729M 1a52e03
Encoding settings : cabac=1 / ref=4 / deblock=1:1:-1 / analyse=0x3:0x113 / me=umh / subme=9 / psy=1 / fade_compensate=0.00 / psy_rd=1.00:0.00 / mixed_ref=1 / me_range=24 / chroma_me=1 / trellis=2 / 8x8dct=1 / cqm=0 / deadzone=21,11 / fast_pskip=1 / chroma_qp_offset=-2 / threads=8 / lookahead_threads=1 / sliced_threads=0 / nr=0 / decimate=1 / interlaced=0 / bluray_compat=0 / constrained_intra=0 / fgo=0 / bframes=9 / b_pyramid=2 / b_adapt=2 / b_bias=0 / direct=1 / weightb=1 / open_gop=0 / weightp=2 / keyint=240 / keyint_min=24 / scenecut=40 / intra_refresh=0 / rc=crf / mbtree=0 / crf=18.5 / qcomp=0.72 / qpmin=0 / qpmax=69 / qpstep=4 / ip_ratio=1.40 / pb_ratio=1.30 / aq=1:0.85
Encoded date : UTC 2016-01-08 22:43:55
Tagged date : UTC 2016-01-21 16:11:56
Color range : Limited
Color primaries : BT.709
Transfer characteristics : BT.709
Matrix coefficients : BT.709

Audio
ID : 2
Format : AC-3
Format/Info : Audio Coding 3
Mode extension : CM (complete main)
Format settings, Endianness : Big
Codec ID : ac-3
Duration : 24mn 0s
Bit rate mode : Constant
Bit rate : 448 Kbps
Channel(s) : 2 channels
Channel positions : Front: L R
Sampling rate : 48.0 KHz
Bit depth : 16 bits
Compression mode : Lossy
Stream size : 76.9 MiB (18%)
Encoded date : UTC 2016-01-21 16:11:55
Tagged date : UTC 2016-01-21 16:11:56
Описание: Клан "Духовных Клинков" с древнейшей историей существования, в поисках дитя, принесенного кометой, объявляет испытания на вступление в ученики клана.
Возможно ли, что это главный герой, обладающий той душой, которая рождается раз в тысячу лет?
Анонсирован 2 сезон
info [Профиль]  [ЛС] 

post 24-Июн-2016 01:02 (спустя 15 минут) [-]0[+]

Топик был перенесен из форума Оформление раздач (Аниме) в форум HD Rips

Chel90RUS
 

Zekat

Пол: Пол:Муж

Стаж: 5 лет 5 месяцев

Сообщений: 324

Рейтинг

post 24-Июн-2016 23:16 (спустя 22 часа) [-]4[+]

[Цитировать] 

Если с далека смотреть, на постер, то виднеется пикантное anime_53

_________________
info [Профиль]  [ЛС] 

godisanalkonaut

Пол: Пол:Муж

Стаж: 3 года 6 месяцев

Сообщений: 5

Рейтинг

post 25-Июн-2016 00:55 (спустя 1 час 38 минут) [-]0[+]

[Цитировать] 

Zekat писал(а):

Если с далека смотреть, на постер, то виднеется пикантное anime_53
Ты меня опередил)
info [Профиль]  [ЛС] 

bofos

Пол: Пол:Муж

Стаж: 7 лет 6 месяцев

Сообщений: 191

Россия
Рейтинг

post 25-Июн-2016 19:22 (спустя 18 часов) [-]0[+]

[Цитировать] 

Zekat писал(а):

Если с далека смотреть, на постер, то виднеется пикантное anime_53
чего пикантного то, все оттуда вылезли af
info [Профиль]  [ЛС] 
Показать сообщения:    
Ответить на тему

Текущее время: 08-Дек 15:49

Часовой пояс: GMT + 4



Вы не можете начинать темы
Вы не можете отвечать на сообщения
Вы не можете редактировать свои сообщения
Вы не можете удалять свои сообщения
Вы не можете голосовать в опросах
Вы не можете прикреплять файлы к сообщениям
Вы не можете скачивать файлы