Ошибка

Дневник будущего / Mirai Nikki (TV) [1-26 из 26] [2011] [Триллер, мистика, драма] [BDRip1080p] [Любительский]

Ответить на тему
 
Автор Сообщение

Chel90RUS

Пол: Пол:Муж

Стаж: 5 лет 5 месяцев

Сообщений: 413

Россия
Рейтинг

post 22-Июн-2016 13:26 3[+]

[Цитировать] 

pic="http://static3.anidub.com/online/poster/670d71acfb.jpg"
Дневник будущего
Mirai Nikki / The Future Diary / 未来日記

Год выпуска: 2011
Жанр: Триллер, мистика, драма
Страна: Япония
Тип: BDRip
Продолжительность: 26 серий ~ 24 мин
Дата выпуска: c 09.10.2011 по 15.04.2012
Режиссер: Хосода Наото
Автор оригинала / Сценарист: Эсуно Сакаэ
Озвучено: OSLIKt, Nika Lenina
Перевод: Advantage
Студия: Asread
Видео: MPEG4 Video (H264) 1920x1080 23.976fps [V: [Kagura] Mirai Nikki - 01 [BDRip 1920x1080 x264 Hi10P FLAC] [jpn] (h264 high 10 L5.1, yuv420p10le, 1920x1080) [default,forced]]
Аудио: Dolby AC3 48000Hz stereo 192kbps [A: OSLIKt & NikaLenina [rus] (ac3, 48000 Hz, stereo, 192 kb/s) [default,forced]]


General
Unique ID : 232932631657725506972792445838201288244 (0xAF3D316AA3F226ACBA47FD1846A97634)
Complete name : \[AniDub]_Mirai_Nikki_[01]_[BDRip_1920x1080_x264_Aac]_[OSLIKt_NikaLenina].mkv
Format : Matroska
Format version : Version 4 / Version 2
File size : 1.47 GiB
Duration : 25mn 20s
Overall bit rate : 8 294 Kbps
Encoded date : UTC 2016-06-19 16:24:11
Writing application : mkvmerge v9.2.0 ('Photograph') 32bit
Writing library : libebml v1.3.3 + libmatroska v1.4.4
Attachements : Bohemian typewriter.ttf / BOOKOS.TTF / CALIST.TTF / GILSANUB.TTF / HoboStd.otf / QuaySansMdITCTT Italic.ttf / QuaySansMdITCTT.ttf / segoeui.ttf / seguisb.ttf / ahronbd.ttf / angsa.ttf / arial.ttf / ARIALN.TTF / Artbrush.ttf / BLISSPROOT-REGULAR.OTF / epgyobld_0.ttf / kaiu.ttf / SRG_MARKER.TTF / Wilderness.ttf
DURATION : 00:25:18.176000000
NUMBER_OF_FRAMES : 47443
NUMBER_OF_BYTES : 36436224
_STATISTICS_WRITING_APP : mkvmerge v9.2.0 ('Photograph') 32bit
_STATISTICS_WRITING_DATE_UTC : 2016-06-19 16:24:11
_STATISTICS_TAGS : BPS DURATION NUMBER_OF_FRAMES NUMBER_OF_BYTES

Video
ID : 1
Format : AVC
Format/Info : Advanced Video Codec
Format profile : High 10@L5.1
Format settings, CABAC : Yes
Format settings, ReFrames : 6 frames
Codec ID : V_MPEG4/ISO/AVC
Duration : 25mn 20s
Bit rate : 7 937 Kbps
Width : 1 920 pixels
Height : 1 080 pixels
Display aspect ratio : 16:9
Frame rate mode : Constant
Frame rate : 23.976 fps
Color space : YUV
Chroma subsampling : 4:2:0
Bit depth : 10 bits
Scan type : Progressive
Bits/(Pixel*Frame) : 0.160
Stream size : 1.40 GiB (96%)
Title : [Kagura] Mirai Nikki - 01 [BDRip 1920x1080 x264 Hi10P FLAC]
Writing library : x264 core 125 r2208+677+32 26f090e tMod [10-bit@4:2:0 X86_64]
Encoding settings : cabac=1 / ref=6 / deblock=1:0:0 / analyse=0x3:0x113 / me=umh / subme=10 / psy=1 / fade_compensate=0.00 / psy_rd=0.70:0.10 / mixed_ref=1 / me_range=32 / chroma_me=1 / trellis=2 / 8x8dct=1 / cqm=0 / deadzone=21,11 / fast_pskip=1 / chroma_qp_offset=-4 / threads=12 / lookahead_threads=2 / sliced_threads=0 / nr=0 / decimate=0 / interlaced=0 / bluray_compat=0 / constrained_intra=0 / fgo=0 / bframes=9 / b_pyramid=2 / b_adapt=2 / b_bias=0 / direct=3 / weightb=1 / open_gop=0 / weightp=2 / keyint=480 / keyint_min=4 / scenecut=50 / intra_refresh=0 / rc=crf / mbtree=0 / crf=17.0000 / qcomp=0.70 / qpmin=8 / qpmax=42 / qpstep=4 / ip_ratio=1.40 / pb_ratio=1.30 / aq=3:0.80
Language : Japanese
Default : Yes
Forced : Yes
DURATION : 00:25:20.020000000
NUMBER_OF_FRAMES : 36444
NUMBER_OF_BYTES : 1527031032
_STATISTICS_WRITING_APP : mkvmerge v9.2.0 ('Photograph') 32bit
_STATISTICS_WRITING_DATE_UTC : 2016-06-19 16:24:11
_STATISTICS_TAGS : BPS DURATION NUMBER_OF_FRAMES NUMBER_OF_BYTES

Audio
ID : 2
Format : AC-3
Format/Info : Audio Coding 3
Mode extension : CM (complete main)
Format settings, Endianness : Big
Codec ID : A_AC3
Duration : 25mn 20s
Bit rate mode : Constant
Bit rate : 192 Kbps
Channel(s) : 2 channels
Channel positions : Front: L R
Sampling rate : 48.0 KHz
Compression mode : Lossy
Stream size : 34.8 MiB (2%)
Title : OSLIKt & NikaLenina
Language : Russian
Default : Yes
Forced : Yes
Описание: Школьник Амано Юкитеру довольно нелюдим и не умеет заводить новых друзей. Он думает о себе как о наблюдателе и всегда записывает все, что видит в дневник своего мобильного телефона. Мучимый одиночеством, Юкитеру обрел себе воображаемого друга, который, как в действительности оказалось, не столь воображаемый, а самый настоящий повелитель времени и пространства под именем «Deus ex machina». Доживая свои последние дни божество устраивает смертельную игру между двенадцатью незнакомцами за право своего преемника. Амано Юкитеру первый из них...
GotSpeed
01. Sign Up
02. Contract Terms
03. Broken on Arrival
04. Manual Input
05. Voice Memo
06. Manner Mode
07. Answering Machine
08. New Model
09. Block List
10. Family Plan
11. Service Terminated
12. Out of Range
13. Unknown Number
14. Memory Reset
15. Couple Plan
16. Repairs
17. Family Discount
18. Crossed Wires
19. Delete All Messages
20. Data Transfer
21. Password Number
22. Disconnection
23. Breach of Contract
24. Data Retrieval
25. Reset
26. Initialization

info [Профиль]  [ЛС] 

drewaka

Пол: Пол:Муж

Стаж: 3 года 10 месяцев

Сообщений: 47

Республика Корея
Рейтинг

post 23-Июн-2016 16:30 (спустя 1 день 3 часа) [-]0[+]

[Цитировать] 

шикарное анимэ, люблю его))
info [Профиль]  [ЛС] 
Показать сообщения:    
Ответить на тему

Текущее время: 04-Дек 03:59

Часовой пояс: GMT + 4



Вы не можете начинать темы
Вы не можете отвечать на сообщения
Вы не можете редактировать свои сообщения
Вы не можете удалять свои сообщения
Вы не можете голосовать в опросах
Вы не можете прикреплять файлы к сообщениям
Вы не можете скачивать файлы