Ошибка

Школа строгого режима / Prison School (TV-1) [1-12 из 12] [2015] [комедия, школа, этти] [BDRip1080p] [Любительский(MVO)]

Ответить на тему
 
Автор Сообщение

Chel90RUS

Пол: Пол:Муж

Стаж: 5 лет 5 месяцев

Сообщений: 413

Россия
Рейтинг

post 18-Июн-2016 00:36 1[+]

[Цитировать] 

pic="http://static2.anidub.com/tracker/poster/48d9730a25.jpg"
Школа строгого режима
Prison School / プリズンスクール

Год выпуска: 2015
Жанр: комедия, школа, этти
Страна: Япония
Тип: BDRip
Продолжительность: 12 серий ~ 25 мин
Дата выпуска: c 11.07.2015 по 26.09.2015
Режиссер: Мидзусима Цутому
Автор оригинала / Сценарист: Хирамото Акира
Озвучено: Trina_D, Гамлетка Цезаревна, Nika Lenina, 9й неизвестный, Cuba77
Перевод: Shift
Студия:
Видео: MPEG4 Video (H264) 1920x1080 23.976fps [V: h264 high 10 L4.1, yuv420p10le, 1920x1080 [default]]
Аудио: Dolby AC3 48000Hz stereo 192kbps [A: ac3, 48000 Hz, stereo, 192 kb/s [default]]


General
Unique ID : 218126758985750446357927193294159889646 (0xA419AF88BE27B016B97C155197BA44EE)
Complete name : \[AniDub]_Prison_School_[01]_[BDRip_1920x1080_x264_Ac3]_[MVO].mkv
Format : Matroska
Format version : Version 4 / Version 2
File size : 1.38 GiB
Duration : 24mn 40s
Overall bit rate mode : Variable
Overall bit rate : 7 998 Kbps
Encoded date : UTC 2016-06-17 10:35:46
Writing application : mkvmerge v9.2.0 ('Photograph') 32bit
Writing library : libebml v1.3.3 + libmatroska v1.4.4
Attachements : BigNoodleTitling.ttf / Bodoni Bk BT Book.ttf / Bodoni SvtyTwo OS ITC TT Bold.TTF / Bolton.ttf / Book Antiqua Bold.TTF / Boom Tank.ttf / Brain Flower Euro.ttf / BrushType-SemiBold.ttf / Calibri Light.ttf / Cambria.ttc / Capture it.ttf / Cartoonist Kooky.ttf / Century Schoolbook.ttf / ChicChalk.otf / Collegiate.ttf / Compass Bold.ttf / Constantia Bold.ttf / COUTURE Bold.ttf / DHF Semangat 2012 Demo.ttf / DJB My Mood Ring Says Blah.ttf / DK Liquid Embrace.ttf / Edo SZ.ttf / Encode Sans Compressed.ttf / Encode Sans Condensed Bold.ttf / Eras Bold ITC.ttf / ExpresswayRg-Regular.ttf / Felt Tip Roman.ttf / FeltTipRoman.ttf / FSO incompetent apprentice.ttf / Gentium Book Basic Bold Italic.ttf / Gentium Book Basic Bold.ttf / Helvetica Neue LT Com 45 Light.ttf / Helvetica Neue LT Com 55 Roman.ttf / Helvetica Neue LT Com 67 Medium Condensed.ttf / Helvetica Neue LT Com 75 Bold.ttf / Helvetica Neue LT Com 85 Heavy.ttf / Helvetica Neue LT Com 87 Heavy Condensed.ttf / Helvetica World Bold.ttf / HelveticaLTStd-Blk.otf / HelveticaLTStd-Bold.otf / HelveticaLTStd-FractionBold.otf / HelveticaRoundedLTStd-Bd.otf / Janda Manatee Solid.ttf / LeviBrush.TTF / Mortal Kombat 5.ttf / Resurrection.TTF / Scotosaurus.ttf / Seven Monkey Fury BB.ttf / squeaky chalk sound.ttf / Times New Roman.ttf / tom script.ttf / Universal Serif.ttf / AA_amakara_sample.ttf / Aharoni Bold.ttf / Arial Black.ttf / Arial Bold.ttf / ArtificeSSK.ttf / Bebas.TTF / BellCentennialStd-BdListing.otf / BellGothicStd-Black.otf
DURATION : 00:24:39.584000000
NUMBER_OF_FRAMES : 46237
NUMBER_OF_BYTES : 35510016
_STATISTICS_WRITING_APP : mkvmerge v9.2.0 ('Photograph') 32bit
_STATISTICS_WRITING_DATE_UTC : 2016-06-17 10:35:46
_STATISTICS_TAGS : BPS DURATION NUMBER_OF_FRAMES NUMBER_OF_BYTES

Video
ID : 1
Format : AVC
Format/Info : Advanced Video Codec
Format profile : High 10@L4.1
Format settings, CABAC : Yes
Format settings, ReFrames : 4 frames
Codec ID : V_MPEG4/ISO/AVC
Duration : 24mn 40s
Bit rate mode : Variable
Bit rate : 7 647 Kbps
Maximum bit rate : 150 Mbps
Width : 1 920 pixels
Height : 1 080 pixels
Display aspect ratio : 16:9
Frame rate mode : Constant
Frame rate : 23.976 fps
Color space : YUV
Chroma subsampling : 4:2:0
Bit depth : 10 bits
Scan type : Progressive
Bits/(Pixel*Frame) : 0.154
Stream size : 1.32 GiB (96%)
Writing library : x264 core 148 r2638 7599210 [L-SMASH]
Encoding settings : cabac=1 / ref=4 / deblock=1:0:0 / analyse=0x3:0x133 / me=esa / subme=9 / psy=1 / psy_rd=2.00:0.00 / mixed_ref=1 / me_range=24 / chroma_me=1 / trellis=2 / 8x8dct=1 / cqm=0 / deadzone=21,11 / fast_pskip=0 / chroma_qp_offset=-2 / threads=6 / lookahead_threads=1 / sliced_threads=0 / nr=0 / decimate=0 / interlaced=0 / bluray_compat=0 / constrained_intra=0 / bframes=3 / b_pyramid=2 / b_adapt=2 / b_bias=0 / direct=3 / weightb=1 / open_gop=0 / weightp=2 / keyint=250 / keyint_min=4 / scenecut=40 / intra_refresh=0 / rc_lookahead=60 / rc=crf / mbtree=1 / crf=15.0 / qcomp=0.60 / qpmin=0 / qpmax=81 / qpstep=4 / vbv_maxrate=150000 / vbv_bufsize=150000 / crf_max=0.0 / nal_hrd=vbr / filler=0 / ip_ratio=1.40 / aq=1:1.00
Default : Yes
Forced : No
Color range : Limited
Color primaries : BT.709
Transfer characteristics : BT.709
Matrix coefficients : BT.709

Audio
ID : 2
Format : AC-3
Format/Info : Audio Coding 3
Mode extension : CM (complete main)
Format settings, Endianness : Big
Codec ID : A_AC3
Duration : 24mn 40s
Bit rate mode : Constant
Bit rate : 192 Kbps
Channel(s) : 2 channels
Channel positions : Front: L R
Sampling rate : 48.0 KHz
Compression mode : Lossy
Delay relative to video : 500ms
Stream size : 33.9 MiB (2%)
Default : Yes
Forced : No
Описание:
Школа Хачимицу, бывшая школа для девочек, после реструктуризации становится школой общего типа - для мальчиков и девочек. Сюда переводятся несколько отважный онанистов, готовых к новым подвигам и свершениям. Но на их пути становится страшный и беспощадный учсовет...
Аниме в 720p тут
info [Профиль]  [ЛС] 

Kainfpo

Пол: Пол:Муж

Стаж: 5 лет 5 месяцев

Сообщений: 3

Россия
Рейтинг

post 18-Июн-2016 16:06 (спустя 15 часов) [-]1[+]

[Цитировать] 

Прикольное аниме. Смотрится на одном дыхании :-)
info [Профиль]  [ЛС] 

Kolyabus

Пол: Пол:Муж

Стаж: 7 лет 2 месяца

Сообщений: 93

Россия
Рейтинг

post 19-Июн-2016 13:35 (спустя 21 час) [-]0[+]

[Цитировать] 

Это да, если не вникать во весь бред происходящего, то очень даже ничего. Над некоторыми моментами жутко угорал!
info [Профиль]  [ЛС] 
Показать сообщения:    
Ответить на тему

Текущее время: 05-Дек 02:27

Часовой пояс: GMT + 4



Вы не можете начинать темы
Вы не можете отвечать на сообщения
Вы не можете редактировать свои сообщения
Вы не можете удалять свои сообщения
Вы не можете голосовать в опросах
Вы не можете прикреплять файлы к сообщениям
Вы не можете скачивать файлы