Ошибка

Симпсоны / The Simpsons (Марк Керклэнд, Джефф Линч, Сьюзи Диттер) (Сезон 27, Серия 22 из 22) [2016 г., мультфильм, комедия, HDRip]

Ответить на тему
 
Автор Сообщение

CrazySmall

Пол: Пол:Муж

Стаж: 6 лет 9 месяцев

Сообщений: 285

СССР
Рейтинг

post 09-Июн-2016 19:49 2[+]

[Цитировать] 

Симпсоны 27 сезон, серии 22 из 22

Оригинальное название: The Simpsons
Год выпуска: 2015-2016
Страна: США
Жанр: мультфильм, комедия
Серия: Серия 22 из 22
Сезон: 27
Продолжительность: 22 мин
Перевод: Профессиональный (многоголосый, закадровый) [Omskbird Records)]



Режиссер:
  • Марк Керклэнд, Джефф Линч, Сьюзи Диттер и др.
В ролях:
  • Дэн Кастелланета, Джули Кавнер, Нэнси Картрайт, Ярдли Смит, Гарри Ширер, Хэнк Азария, Памела Хейден, Тресс МакНилл, Карл Видерготт, Мэгги Росвэл

Описание:
Мультфильм — пародия на американский уклад жизни. Cемейство Симпсонов состоит из пяти членов: папаша Гомер, мать семейства Мардж, их дочери Лиза и Мэгги и несносный подросток Барт.
Доп. информация:
Субтитры: русские, английские
Качество: HDRip
Формат: AVI
Данные видео: 720х400, 1701 Kbps, 23,976 fps
Данные аудио#1: AC3, 6 ch, 384 kbps, 48kHz - русский перевод: Omskbird Records
Данные аудио#2: AC3, 6 ch, 384 kbps, 48kHz - английский
1. Every Man's Dream - Мечта каждого человека
2. Cue Detective - Типа детектив
3. Puffless - Меньше пыхтите
4. Halloween of Horror - Ужасы на Хэллоуин
5. Treehouse of Horror XXVI - Домик ужасов на дереве 26
6. Friend with Benefit - Друг с выгодой
7. Lisa with an «S» - Лиза с «С»
8. Paths of Glory - Тропы славы
9. Barthood - Бартство
10. The Girl Code - Женский код
11. Teenage Mutant Milk-Caused Hurdles - Подросток-мутант и неприятности из-за заменителя молока
12. Much Apu About Something - Много чего об Апу
13. Love Is in the N2-O2-Ar-CO2-Ne-He-CH4 - Любовь — это N2-O2-Ar-CO2-Ne-He-CH4
14. Gal of Constant Sorrow - Девушка из постоянной боли
15. Lisa the Veterinarian - Лиза ветеринар
16. The Marge-ian Chronicles - Марж-ианские хроники
17. The Burns Cage - Огненная клетка
18. How Lisa Got Her Marge Back - Как Лиза вернула свою Мардж
19. Fland Canyon - Фланд-Каньон
20. To Courier with Love - Курьеру с любовью
21. Simprovised - Симпровизация
22. Orange Is the New Yellow - Жёлтый — это хит сезона
Формат : AVI
Формат/Информация : Audio Video Interleave
Размер файла : 420 Мбайт
Продолжительность : 23 м.
Общий поток : 2483 Кбит/сек
Программа кодирования : VirtualDubMod 1.5.10.3 | www.virtualdub-fr.org || (build 2550/release)
Библиотека кодирования : VirtualDubMod build 2550/release

Видео
Идентификатор : 0
Формат : MPEG-4 Visual
Профиль формата : Advanced Simple@L5
Параметр BVOP формата : 2
Параметр QPel формата : Нет
Параметр GMC формата : Без точки перехода
Параметр матрицы формата : Выборочная
Идентификатор кодека : XVID
Идентификатор кодека/Подсказка : XviD
Продолжительность : 23 м.
Битрейт : 1701 Кбит/сек
Ширина : 720 пикселей
Высота : 400 пикселей
Соотношение сторон : 16:9
Частота кадров : 23,976 (23976/1000) кадра/сек
Цветовое пространство : YUV
Субдискретизация насыщенности : 4:2:0
Битовая глубина : 8 бит
Тип развёртки : Прогрессивная
Метод сжатия : С потерями
Бит/(Пиксели*Кадры) : 0.246
Размер потока : 288 Мбайт (69%)
Библиотека кодирования : XviD 73

Аудио #1
Идентификатор : 1
Формат : AC-3
Формат/Информация : Audio Coding 3
Расширение режима : CM (complete main)
Параметр Endianness формата : Big
Идентификатор кодека : 2000
Продолжительность : 23 м.
Вид битрейта : Постоянный
Битрейт : 384 Кбит/сек
Каналы : 6 каналов
Расположение каналов : Front: L C R, Side: L R, LFE
Частота : 48,0 КГц
Частота кадров : 31,250 кадров/сек (1536 spf)
Метод сжатия : С потерями
Размер потока : 64,9 Мбайт (15%)
Выравнивание : Разделение по промежуткам
Продолжительность промежутка : 42 мс. (1,00 видеокадр)
Время предзагрузки промежутка : 500 мс.

Аудио #2
Идентификатор : 2
Формат : AC-3
Формат/Информация : Audio Coding 3
Расширение режима : CM (complete main)
Параметр Endianness формата : Big
Идентификатор кодека : 2000
Продолжительность : 23 м.
Вид битрейта : Постоянный
Битрейт : 384 Кбит/сек
Каналы : 6 каналов
Расположение каналов : Front: L C R, Side: L R, LFE
Частота : 48,0 КГц
Частота кадров : 31,250 кадров/сек (1536 spf)
Метод сжатия : С потерями
Размер потока : 64,9 Мбайт (15%)
Выравнивание : Разделение по промежуткам
Продолжительность промежутка : 42 мс. (1,00 видеокадр)
Время предзагрузки промежутка : 500 мс.
info [Профиль]  [ЛС] 

BZzz

Пол: Пол:Муж

Стаж: 5 лет 1 месяц

Сообщений: 3647

Россия
Рейтинг

post 13-Июн-2016 01:55 (спустя 3 дня) [-]0[+]

[Цитировать] 

CrazySmall
 !  BZzz:

Цитата:

11.6 Во всех разделах скриншоты обязательно делать в формате PNG

_________________
info [Профиль]  [ЛС] 

CrazySmall

Пол: Пол:Муж

Стаж: 6 лет 9 месяцев

Сообщений: 285

СССР
Рейтинг

post 13-Июн-2016 16:57 (спустя 15 часов) [-]0[+]

[Цитировать] 

По ряду причин, раздача с 17-30 до 00-00.
Пока так...

_________________
Сто процентную гарантию дает только контрольный выстрел в голову.
info [Профиль]  [ЛС] 

Dan22e

Пол: Пол:Муж

Стаж: 5 лет 5 месяцев

Сообщений: 61

Украина
Рейтинг

post 14-Июн-2016 21:48 (спустя 1 день 4 часа) [-]1[+]

[Цитировать] 

Постер зачет
info [Профиль]  [ЛС] 

EgorYurov

Пол: Пол:Муж

Стаж: 6 лет 11 месяцев

Сообщений: 673

Предупреждений: 3

Россия
Рейтинг

post 14-Июн-2016 22:27 (спустя 39 минут) [-]0[+]

[Цитировать] 

а как сезон? Прошлые пару сезонов, имхо были очень слабые
info [Профиль]  [ЛС] 

bakshaevst

Пол: Пол:Муж

Стаж: 7 лет 3 месяца

Сообщений: 14

Россия
Рейтинг

post 15-Июн-2016 09:03 (спустя 10 часов) [-]0[+]

[Цитировать] 

А где же скорость??((((
info [Профиль]  [ЛС] 

CrazySmall

Пол: Пол:Муж

Стаж: 6 лет 9 месяцев

Сообщений: 285

СССР
Рейтинг

post 15-Июн-2016 09:13 (спустя 9 минут) [-]0[+]

[Цитировать] 

bakshaevst писал(а):

А где же скорость??((((
10 мб. Все остальные мои раздачи в стоп листе.
Повторюсь: я на раздаче после 17-00.

_________________
Сто процентную гарантию дает только контрольный выстрел в голову.
info [Профиль]  [ЛС] 
Показать сообщения:    
Ответить на тему

Текущее время: 11-Дек 00:34

Часовой пояс: GMT + 4



Вы не можете начинать темы
Вы не можете отвечать на сообщения
Вы не можете редактировать свои сообщения
Вы не можете удалять свои сообщения
Вы не можете голосовать в опросах
Вы не можете прикреплять файлы к сообщениям
Вы не можете скачивать файлы