Ошибка

Изгнанные из Рая / Rakuen Tsuihou: Expelled from Paradise (Movie) [2014] [Приключения, фантастика, боевик] [BDRip720p] [Профессиональный (Многоголосый)]

Ответить на тему
 
Автор Сообщение

Chel90RUS

Пол: Пол:Муж

Стаж: 5 лет 5 месяцев

Сообщений: 413

Россия
Рейтинг

post 04-Июн-2016 00:37 1[+]

[Цитировать] 

pic="http://static2.anidub.com/tracker/poster/993318a3f7.jpg"
Изгнанные из Рая
Rakuen Tsuihou: Expelled from Paradise / 楽園追放 -Expelled from Paradise-

Дата выпуска: 15.11.2014
Жанр: Приключения, фантастика, боевик
Страна: Япония
Тип: BDRip
Продолжительность: 105 мин.
Режиссер: Мидзусима Сэйдзи
Автор оригинала / Сценарист: Уробути Гэн
Озвучивание:
Студийная Банда AD:
Balfor, Oriko, Торгиль, JAM, Влад Дуров, Demetra, Esther, Давид Петросян, Cuba77
Перевод: St_Ranger, Sovereign, Nerevar, DarkScorpio
Тайминг и работа со звуком: Al'pair, NeSqUiK
Студия: Toei Animation


Контейнер: MP4
Видео: MPEG4 Video (H264) 1280x720 23.976fps 2209kbps [V: Video (h264 high L4.0, yuv420p, 1280x720, 2209 kb/s)]
Аудио: AAC 48000Hz 6ch 573kbps [A: Russian [rus] (aac lc, 48000 Hz, 5.1, 573 kb/s)]
General
Complete name : \[AniDub]_Rakuen_Tsuihou_Expelled_from_Paradise_[720p]_[StudioAD].mp4
Format : MPEG-4
Format profile : Base Media
Codec ID : isom
File size : 2.03 GiB
Duration : 1h 44mn
Overall bit rate mode : Variable
Overall bit rate : 2 787 Kbps
Encoded date : UTC 2016-06-01 14:48:57
Tagged date : UTC 2016-06-01 14:48:57
Writing application : Yamb 2.1.0.0
Video
ID : 1
Format : AVC
Format/Info : Advanced Video Codec
Format profile : High@L4
Format settings, CABAC : Yes
Format settings, ReFrames : 6 frames
Codec ID : avc1
Codec ID/Info : Advanced Video Coding
Duration : 1h 44mn
Bit rate : 2 210 Kbps
Maximum bit rate : 21.1 Mbps
Width : 1 280 pixels
Height : 720 pixels
Display aspect ratio : 16:9
Frame rate mode : Constant
Frame rate : 23.976 fps
Color space : YUV
Chroma subsampling : 4:2:0
Bit depth : 8 bits
Scan type : Progressive
Bits/(Pixel*Frame) : 0.100
Stream size : 1.61 GiB (79%)
Title : Video
Encoded date : UTC 2014-12-25 11:02:01
Tagged date : UTC 2016-06-01 14:53:30

Audio
ID : 2
Format : AAC
Format/Info : Advanced Audio Codec
Format profile : LC
Codec ID : 40
Duration : 1h 44mn
Bit rate mode : Variable
Bit rate : 576 Kbps
Maximum bit rate : 587 Kbps
Channel(s) : 2 channels
Channel(s)_Original : 6 channels
Channel positions : Front: L C R, Side: L R, LFE
Sampling rate : 48.0 KHz
Compression mode : Lossy
Stream size : 427 MiB (21%)
Language : Russian
Encoded date : UTC 2016-06-01 14:52:27
Tagged date : UTC 2016-06-01 14:53:30

Описание: Мир людей уже совсем не тот, как и мир разума и души.
Анджела Бальзак отправляется на поиски некого Первопроходца, нарушающего общественный порядок мира реального и мира цифрового. Ей в помощь направляют весьма эксцентричного помощника. В ходе расследования Анджела все больше начинает привыкать к свободе выбора и мышления, именно того, что определяет человека человеком.
Найдут ли они злоумышленника и преступник ли он?



Исправлены недочёты со звуком
info [Профиль]  [ЛС] 

Chel90RUS

Пол: Пол:Муж

Стаж: 5 лет 5 месяцев

Сообщений: 413

Россия
Рейтинг

post 04-Июн-2016 14:54 (спустя 14 часов) [-]0[+]

[Цитировать] 

Исправлены недочёты со звуком

_________________
info [Профиль]  [ЛС] 

Kirill

Пол: Пол:Муж

Стаж: 6 лет 2 месяца

Сообщений: 197

Россия
Рейтинг

post 04-Июн-2016 22:30 (спустя 7 часов) [-]0[+]

[Цитировать] 

Никто не подскажет аниме, похожего на данное?
info [Профиль]  [ЛС] 

Lameridze

Стаж: 5 лет 5 месяцев

Сообщений: 21

Россия
Рейтинг

post 04-Июн-2016 22:48 (спустя 18 минут) [-]1[+]

[Цитировать] 

Kirill писал(а):

Никто не подскажет аниме, похожего на данное?
Ну пожалуй Гаргантия на Зелёной планете будет близок. Трудно посоветовать что то конкретное, слишком много всего намешано, тут и Матрица и Элизиум, немного классической мехи разбавленной атмосферой Тригана. Эти элементы несомненно есть во многих аниме, но так чтоб уже все они разом пересекались в одном мне что то на ум не приходит.
info [Профиль]  [ЛС] 

DARKCAT1989

Стаж: 6 лет 10 месяцев

Сообщений: 263

Россия
Рейтинг

post 04-Июн-2016 23:44 (спустя 55 минут) [-]0[+]

[Цитировать] 

а рус сабы есть?
info [Профиль]  [ЛС] 

Chel90RUS

Пол: Пол:Муж

Стаж: 5 лет 5 месяцев

Сообщений: 413

Россия
Рейтинг

post 05-Июн-2016 00:33 (спустя 49 минут) [-]0[+]

[Цитировать] 

DARKCAT1989 писал(а):

а рус сабы есть?
в интернете всё есть

_________________
info [Профиль]  [ЛС] 

leSang

Пол: Пол:Муж

Стаж: 7 лет 8 месяцев

Сообщений: 928

Япония
Рейтинг

post 05-Июн-2016 01:09 (спустя 35 минут) [-]0[+]

[Цитировать] 

тут только дубляж?

_________________
info [Профиль]  [ЛС] 

Chel90RUS

Пол: Пол:Муж

Стаж: 5 лет 5 месяцев

Сообщений: 413

Россия
Рейтинг

post 05-Июн-2016 01:24 (спустя 15 минут) [-]0[+]

[Цитировать] 

leSang писал(а):

тут только дубляж?
да

_________________
info [Профиль]  [ЛС] 

leSang

Пол: Пол:Муж

Стаж: 7 лет 8 месяцев

Сообщений: 928

Япония
Рейтинг

post 05-Июн-2016 13:06 (спустя 11 часов) [-]0[+]

[Цитировать] 

беда

_________________
info [Профиль]  [ЛС] 
Показать сообщения:    
Ответить на тему

Текущее время: 07-Дек 22:30

Часовой пояс: GMT + 4



Вы не можете начинать темы
Вы не можете отвечать на сообщения
Вы не можете редактировать свои сообщения
Вы не можете удалять свои сообщения
Вы не можете голосовать в опросах
Вы не можете прикреплять файлы к сообщениям
Вы не можете скачивать файлы