Ошибка

До окончания фрилича осталось:


Судьба/Ночь Схватки: Бесконечных клинков край / Fate/Stay Night: Unlimited Blade Works (TV) [00-25 + SP из 00-25 + SP] [2014] [Приключения, фэнтези, романтика, драма] [BDRip1080p] [Любительский]

Ответить на тему
 
Автор Сообщение

Chel90RUS

Пол: Пол:Муж

Стаж: 5 лет 5 месяцев

Сообщений: 413

Россия
Рейтинг

post 30-Май-2016 18:46 1[+]

[Цитировать] 

pic="http://static2.anidub.com/tracker/poster/cf3d8bbd33.jpg"
Судьба/Ночь Схватки: Бесконечных клинков край
Fate/Stay Night: Unlimited Blade Works / Fate/stay night [Unlimited Blade Works]

Год выпуска: 2014
Жанр: Приключения, фэнтези, романтика, драма
Страна: Япония
Тип: BDRip
Продолжительность: 26 серий ~ 25 мин (00-01 серия ~ 50 мин)
Дата выпуска: c 12.10.2014 по 28.06.2015
Режиссер: Миура Такахиро
Автор оригинала / Сценарист: Насу Киноко
Студия: Ufotable
Озвучено: JAM, Гамлетка Цезаревна
Перевод: YakuSub Studio, GMC
Тайминг и работа со звуком: Al'pair, Deven, SuNRiZ

Формат файла: Matroska (MKV)
Аудио: Dolby AC3 48000Hz stereo 192kbps [A: Russian [rus] (ac3, 48000 Hz, stereo, 192 kb/s) [default]]
Видео: MPEG4 Video (H264) 1920x1080 23.976fps [V: h264 high 10 L4.1, yuv420p10le, 1920x1080]

General
Unique ID : 252800601070976428970308863688561216195 (0xBE2F9FF0052FDDD7818C11F95D1D4AC3)
Complete name : \[AniDub]_Fate_-_Stay_Night_-_Unlimited_Blade_Works_[00]_[BDRip_1920x1080_x264_Ac3]_[JAM_HC].mkv
Format : Matroska
Format version : Version 4 / Version 2
File size : 5.54 GiB
Duration : 50mn 38s
Overall bit rate : 15.7 Mbps
Encoded date : UTC 2015-11-07 06:18:40
Writing application : mkvmerge v8.5.2 ('Crosses') 64bit
Writing library : libebml v1.3.3 + libmatroska v1.4.4
DURATION : 00:50:38.816000000
NUMBER_OF_FRAMES : 94963
NUMBER_OF_BYTES : 72931584
_STATISTICS_WRITING_APP : mkvmerge v8.5.2 ('Crosses') 64bit
_STATISTICS_WRITING_DATE_UTC : 2015-11-07 06:18:40
_STATISTICS_TAGS : BPS DURATION NUMBER_OF_FRAMES NUMBER_OF_BYTES

Video
ID : 1
Format : AVC
Format/Info : Advanced Video Codec
Format profile : High 10@L4.1
Format settings, CABAC : Yes
Format settings, ReFrames : 4 frames
Codec ID : V_MPEG4/ISO/AVC
Duration : 50mn 38s
Bit rate : 15.2 Mbps
Width : 1 920 pixels
Height : 1 080 pixels
Display aspect ratio : 16:9
Frame rate mode : Constant
Frame rate : 23.976 fps
Color space : YUV
Chroma subsampling : 4:2:0
Bit depth : 10 bits
Scan type : Progressive
Bits/(Pixel*Frame) : 0.305
Stream size : 5.36 GiB (97%)
Writing library : x264 core 132 r2309 3b1f1f7
Encoding settings : cabac=1 / ref=4 / deblock=1:-2:-2 / analyse=0x3:0x133 / me=umh / subme=9 / psy=1 / psy_rd=0.90:0.00 / mixed_ref=1 / me_range=24 / chroma_me=1 / trellis=2 / 8x8dct=1 / cqm=0 / deadzone=21,11 / fast_pskip=1 / chroma_qp_offset=-2 / threads=12 / lookahead_threads=2 / sliced_threads=0 / nr=0 / decimate=0 / interlaced=0 / bluray_compat=0 / constrained_intra=0 / bframes=8 / b_pyramid=2 / b_adapt=2 / b_bias=0 / direct=1 / weightb=1 / open_gop=0 / weightp=2 / keyint=250 / keyint_min=23 / scenecut=40 / intra_refresh=0 / rc=crf / mbtree=0 / crf=16.0 / qcomp=0.70 / qpmin=9 / qpmax=42 / qpstep=4 / ip_ratio=1.40 / pb_ratio=1.30 / aq=1:0.90 / zones=18481,18874,b=1.2/55697,56613,b=1.2/58361,59374,b=1.2
Default : No
Forced : No
DURATION : 00:50:38.786000000
NUMBER_OF_FRAMES : 72858
NUMBER_OF_BYTES : 5875467631
_STATISTICS_WRITING_APP : mkvmerge v8.5.2 ('Crosses') 64bit
_STATISTICS_WRITING_DATE_UTC : 2015-11-07 06:18:40
_STATISTICS_TAGS : BPS DURATION NUMBER_OF_FRAMES NUMBER_OF_BYTES

Audio
ID : 2
Format : AC-3
Format/Info : Audio Coding 3
Mode extension : CM (complete main)
Format settings, Endianness : Big
Codec ID : A_AC3
Duration : 50mn 38s
Bit rate mode : Constant
Bit rate : 192 Kbps
Channel(s) : 2 channels
Channel positions : Front: L R
Sampling rate : 48.0 KHz
Compression mode : Lossy
Stream size : 69.6 MiB (1%)
Language : Russian
Default : Yes
Forced : No


Описание:Думаю, все знают, что такое Фейт и о чем оно.
Так что расскажу подробнее именно про это ТВ.
Это НЕ продолжение Фейта, что выходил в 2006ом году.
Это нечто вроде рекапа ТВ 2006ого года, только теперь глав героями будут Тосака Рин и Арчер и совершать они будут другие поступки и сюжет будет развиваться по другому.
====================================================
Простой японский подросток Сиро Эмия жил-поживал в родном городке Фуюки и вдруг оказался втянут в войну каких-то Мастеров-магов за Святой Грааль. С одной стороны, магом парень был средненьким, и шансы выжить выглядели неважно. Но ведь старуха с косой где-то там, а собственный боец – белокурая красавица Сэйбер – уже здесь, и общаться с ней куда приятнее! Да и «королева школы» Рин Тосака внезапно оказалась коллегой-Мастером и мировой девчонкой, а что ее Слуга Арчер – на редкость вредный тип, так можно и потерпеть.
Конечно, главный приз Сиро был не нужен, убивать кого-то он категорически не хотел, но «на войне, как на войне». Что нельзя предотвратить – нужно возглавить, вот наш герой и «подписался на Грааль». Все было бы просто здорово, если бы Эмия-кун сидел спокойно и работал «вторым номером» – так нет же, постоянно лезет куда не надо. Вы что-то подобное уже смотрели? Тогда учтите, что Сиро здесь гораздо активнее, Сэйбер – человечнее, Рин – живее, Арчер – загадочнее, а Лансер – благороднее. И вообще, это уже другая история!

© Hollow, World Art
info [Профиль]  [ЛС] 

MiloRU

Пол: Пол:Муж

Стаж: 6 лет 7 месяцев

Сообщений: 84

Предупреждений: 1

Россия
Рейтинг

post 30-Май-2016 22:14 (спустя 3 часа) [-]2[+]

[Цитировать] 

Одно из лучших аниме которые я смотрел.
info [Профиль]  [ЛС] 
Показать сообщения:    
Ответить на тему

Текущее время: 10-Дек 18:46

Часовой пояс: GMT + 4



Вы не можете начинать темы
Вы не можете отвечать на сообщения
Вы не можете редактировать свои сообщения
Вы не можете удалять свои сообщения
Вы не можете голосовать в опросах
Вы не можете прикреплять файлы к сообщениям
Вы не можете скачивать файлы