Ошибка

Аномализа / Anomalisa (Дьюк Джонсон, Чарли Кауфман) [2015, Мультфильм, полнометражный, драма, комедия, WEB-DLRip] Dub (iTunes)

Ответить на тему
 
Автор Сообщение

L

Пол: Пол:Муж

Стаж: 6 лет 7 месяцев

Сообщений: 10788

Украина
Рейтинг

post 03-Май-2016 08:15 3[+]

[Цитировать] 

Аномализа/ Anomalisa
Год выпуска: 2015
Жанр: Мультфильм, полнометражный, драма, комедия
Выпущено: США, Paramount Animation, Starburns Industries
Продолжительность: 01:30:39
Перевод: Дублированный | iTunes

Режиссер: Дьюк Джонсон, Чарли Кауфман
В ролях: Дэвид Тьюлис, Дженнифер Джейсон Ли, Том Нунен
О фильме: Майкл Стоун, автор книг по обслуживанию клиентов, страдает от неспособности контактировать с людьми. Однажды, в ходе очередной рабочей поездки, он встречает незнакомца, который меняет его мировосприятие.

Качество: WEB-DLRip
Формат: AVI
Видео: XviD, 1762 kb/s, 720x304
Аудио: AC3, 6 ch, 384 Кбит/с
Полное имя : D:\V\Anomalisa.2015.D.WEB-DLRip.14OOMb.avi
Формат : AVI
Формат/Информация : Audio Video Interleave
Размер файла : 1,37 Гбайт
Продолжительность : 1 ч. 30 м.
Общий поток : 2154 Кбит/сек
Программа кодирования : VirtualDubMod 1.5.10.2 (build 2540/release)
Библиотека кодирования : VirtualDubMod build 2540/release

Видео
Идентификатор : 0
Формат : MPEG-4 Visual
Профиль формата : Advanced Simple@L5
Параметр BVOP формата : 2
Параметр QPel формата : Нет
Параметр GMC формата : Без точки перехода
Параметр матрицы формата : Выборочная
Идентификатор кодека : XVID
Идентификатор кодека/Подсказка : XviD
Продолжительность : 1 ч. 30 м.
Битрейт : 1762 Кбит/сек
Ширина : 720 пикселей
Высота : 304 пикселя
Соотношение сторон : 2,35:1
Частота кадров : 23,976 (24000/1001) кадра/сек
Цветовое пространство : YUV
Субдискретизация насыщенности : 4:2:0
Битовая глубина : 8 бит
Тип развёртки : Прогрессивная
Метод сжатия : С потерями
Бит/(Пиксели*Кадры) : 0.336
Размер потока : 1,12 Гбайт (82%)
Библиотека кодирования : XviD 1.2.1 (UTC 2008-12-04)

Аудио
Идентификатор : 1
Формат : AC-3
Формат/Информация : Audio Coding 3
Расширение режима : CM (complete main)
Параметр Endianness формата : Big
Идентификатор кодека : 2000
Продолжительность : 1 ч. 30 м.
Вид битрейта : Постоянный
Битрейт : 384 Кбит/сек
Каналы : 6 каналов
Расположение каналов : Front: L C R, Side: L R, LFE
Частота : 48,0 КГц
Частота кадров : 31,250 кадров/сек (1536 spf)
Метод сжатия : С потерями
Размер потока : 249 Мбайт (18%)
Выравнивание : Разделение по промежуткам
Продолжительность промежутка : 42 мс. (1,00 видеокадр)
Время предзагрузки промежутка : 500 мс.
info [Профиль]  [ЛС] 

tolstik82

Пол: Пол:Муж

Стаж: 4 года 4 месяца

Сообщений: 15

Россия
Рейтинг

post 03-Май-2016 23:18 (спустя 15 часов) [-]0[+]

[Цитировать] 

отпишитесь кто посмотрел стоит-ли времени и еще ЭТО фильм или мульт
info [Профиль]  [ЛС] 

zachx

Пол: Пол:Муж

Стаж: 4 года

Сообщений: 2

Россия
Рейтинг

post 04-Май-2016 00:21 (спустя 1 час 3 минуты) [-]-1[+]

[Цитировать] 

Скриншоты же... Мульт это. И судя по скринам не совсем детский.
info [Профиль]  [ЛС] 

Inqq

Пол: Пол:Муж

Стаж: 6 лет 9 месяцев

Сообщений: 197

Рейтинг

post 04-Май-2016 01:25 (спустя 1 час 4 минуты) [-]0[+]

[Цитировать] 

Перевод одноголосный чтоли
info [Профиль]  [ЛС] 

JBar

Стаж: 6 лет 9 месяцев

Сообщений: 371

Рейтинг

post 12-Май-2016 20:42 (спустя 8 дней) [-]0[+]

[Цитировать] 

zachx писал(а):

Скриншоты же... Мульт это. И судя по скринам не совсем детский.
Он совершенно не детский...и странный какой-то....не интересный, а просто - странный...
info [Профиль]  [ЛС] 

Конгрик

Пол: Пол:Муж

Стаж: 4 года 2 месяца

Сообщений: 228

Россия
Рейтинг

post 25-Май-2016 19:40 (спустя 12 дней) [-]-2[+]

[Цитировать] 

сПАСИБО ЗА РАЗДАЧУ!

_________________
Люблю людей, люблю когда их нет. Выйду на балкон, разряжу пистолет...
info [Профиль]  [ЛС] 

post 21-Июл-2016 11:06 (спустя 1 месяц 26 дней) [-]0[+]

Топик был перенесен из форума Новинки 2015-2016 (Rips) в форум Зарубежные полнометражные мультфильмы

Formula
 
Показать сообщения:    
Ответить на тему

Текущее время: 05-Дек 22:40

Часовой пояс: GMT + 4



Вы не можете начинать темы
Вы не можете отвечать на сообщения
Вы не можете редактировать свои сообщения
Вы не можете удалять свои сообщения
Вы не можете голосовать в опросах
Вы не можете прикреплять файлы к сообщениям
Вы не можете скачивать файлы