Ошибка

Крякнутые каникулы (Виктор Лакисов) [2016, Мультфильм, комедия, приключения, семейный, WEB-DL 1080p]

Ответить на тему
 
Автор Сообщение

L

Пол: Пол:Муж

Стаж: 6 лет 8 месяцев

Сообщений: 10830

Украина
Рейтинг

post 02-Май-2016 11:51 1[+]

[Цитировать] 

Оригинальное название: Крякнутые каникулы
Год выпуска: 2016
Жанр: Мультфильм, комедия, приключения, семейный, полнометражный
Выпущено: Россия, Animation Studio RIM, Asymmetric VFX
Продолжительность: 01:21:43
Язык: Русский

Режиссер: Виктор Лакисов
В ролях: Никита Пресняков, Владимир Пресняков мл., Эвелина Блёданс, Полина Максимова, Александр Головин, Всеволод Кузнецов, Борис Токарев (II), Станислав Стрелков, Елена Шульман, Михаил Лукашов

О фильме: Перелётные кряквы из России, решившие провести свой отдых на Гавайях, сбиваются с пути и приземляются на китайский остров, на котором живут утки-мандаринки. Между двумя стаями возникает много смешных и курьёзных ситуаций. Пока отцы дерутся и спорят, Ник, сын императора мандаринок и Ариша, дочь командира русских крякв, знакомятся и становятся друзьями. Дети должны объединить мандаринок и крякв и победить Ведьму Марго, которая хочет погубить солнце.

Качество: WEB-DL 1080p
Формат: MKV
Видео: MPEG-4 AVC, 5100 Кбит/с, 1920x1064
Аудио: AC3, 2 ch, 384 Кбит/с
Уникальный идентификатор : 196233740544819429670100405817117780423 (0x93A13E6337ABA376A0069077438829C7)
Полное имя : D:\V\KraCHnutie.KaniKUli.2O16.O.WEB-DL.1O8OP.mkv
Формат : Matroska
Версия формата : Version 2
Размер файла : 3,19 Гбайт
Продолжительность : 1 ч. 21 м.
Общий поток : 5590 Кбит/сек
Дата кодирования : UTC 2016-05-01 21:02:26
Программа кодирования : mkvmerge v7.8.0 ('River Man') 32bit built on Apr 3 2015 12:11:22
Библиотека кодирования : libebml v1.3.1 + libmatroska v1.4.2

Видео
Идентификатор : 1
Формат : AVC
Формат/Информация : Advanced Video Codec
Профиль формата : High@L4
Параметр CABAC формата : Да
Параметр ReFrames формата : 4 кадра
Идентификатор кодека : V_MPEG4/ISO/AVC
Продолжительность : 1 ч. 21 м.
Битрейт : 5094 Кбит/сек
Ширина : 1920 пикселей
Высота : 1064 пикселя
Соотношение сторон : 16:9
Режим частоты кадров : Постоянный
Частота кадров : 24,000 кадра/сек
Цветовое пространство : YUV
Субдискретизация насыщенности : 4:2:0
Битовая глубина : 8 бит
Тип развёртки : Прогрессивная
Бит/(Пиксели*Кадры) : 0.104
Размер потока : 2,91 Гбайт (91%)
Язык : English
Default : Да
Forced : Нет
Цветовой диапазон : Limited
Основные цвета : BT.709
Характеристики трансфера : BT.709
Коэффициенты матрицы : BT.709
Statistics Tags Issue : mkvmerge v8.3.0 ('Over the Horizon') 64bit 2016-04-30 09:43:29 / mkvmerge v7.8.0 ('River Man') 32bit built on Apr 3 2015 12:11:22 2016-05-01 21:02:26
FromStats_BitRate : 5203809
FromStats_Duration : 01:21:47.000000000
FromStats_FrameCount : 117768
FromStats_StreamSize : 3191886849

Аудио
Идентификатор : 2
Формат : AC-3
Формат/Информация : Audio Coding 3
Расширение режима : CM (complete main)
Параметр Endianness формата : Big
Идентификатор кодека : A_AC3
Продолжительность : 1 ч. 21 м.
Вид битрейта : Постоянный
Битрейт : 384 Кбит/сек
Каналы : 2 канала
Расположение каналов : Front: L R
Частота : 48,0 КГц
Частота кадров : 31,250 кадров/сек (1536 spf)
Метод сжатия : С потерями
Размер потока : 225 Мбайт (7%)
Язык : Russian
Default : Да
Forced : Да
Statistics Tags Issue : mkvmerge v8.3.0 ('Over the Horizon') 64bit 2016-04-30 09:43:29 / mkvmerge v7.8.0 ('River Man') 32bit built on Apr 3 2015 12:11:22 2016-05-01 21:02:26
FromStats_BitRate : 384000
FromStats_Duration : 01:21:47.072000000
FromStats_FrameCount : 153346
FromStats_StreamSize : 235539456

Меню
00:00:00.000 : en:01
00:04:13.000 : en:02
00:10:52.000 : en:03
00:16:55.000 : en:04
00:21:03.000 : en:05
00:25:56.000 : en:06
00:30:57.000 : en:07
00:37:04.000 : en:08
00:42:30.000 : en:09
00:47:40.000 : en:10
00:53:18.000 : en:11
00:58:25.000 : en:12
01:03:02.000 : en:13
01:09:40.000 : en:14
01:14:20.000 : en:15
01:19:52.000 : en:16
info [Профиль]  [ЛС] 

brid

Пол: Пол:Муж

Стаж: 7 лет 2 месяца

Сообщений: 131

Россия
Рейтинг

post 02-Май-2016 14:25 (спустя 2 часа 33 минуты) [-]1[+]

[Цитировать] 

Жуткая рисовка, а ведь это детский мультфильм.
info [Профиль]  [ЛС] 

rambaramba

Пол: Пол:Муж

Стаж: 1 год 10 месяцев

Сообщений: 421

Предупреждений: 1

Антарктида
Рейтинг

post 02-Май-2016 19:47 (спустя 5 часов) [-]1[+]

[Цитировать] 

НУ не совсем все так плохо.
          

_________________
Уважаемый админ, прошу добавь мне 99 предупреждений. Хочу быть самым опасным и жить на грани банана.
info [Профиль]  [ЛС] 

lordalsi

Пол: Пол:Муж

Стаж: 6 лет 7 месяцев

Сообщений: 155

Россия
Рейтинг

post 02-Май-2016 21:31 (спустя 1 час 44 минуты) [-]1[+]

[Цитировать] 

У нас эти утки сраные никуда не улетают - так в городе и зимуют, а их откармливают люди. Идёшь мимо речки, а там 100 уток этих сидят.
info [Профиль]  [ЛС] 

JackZlo

Пол: Пол:Муж

Стаж: 6 лет 8 месяцев

Сообщений: 986

Предупреждений: 2

Россия
Рейтинг

post 02-Май-2016 21:55 (спустя 23 минуты) [-]3[+]

[Цитировать] 

Что хоть за фотохостинг такой? Жесть какая, пока в полный экран раскрывался скриншот вспомнил те времена, когда на скорости 4-8 кб/сек сидел, через телефон когда ещё модемы были...

_________________
info [Профиль]  [ЛС] 

killer47

Пол: Пол:Муж

Стаж: 7 лет 8 месяцев

Сообщений: 290

Азербайджан
Рейтинг

post 02-Май-2016 22:50 (спустя 55 минут) [-]0[+]

[Цитировать] 

lordalsi писал(а):

У нас эти утки сраные никуда не улетают - так в городе и зимуют, а их откармливают люди. Идёшь мимо речки, а там 100 уток этих сидят.
Что такого тебе сделали утки, что ты на них так взъелся?

_________________
Smoking ganja for medical purposes only.
info [Профиль]  [ЛС] 

lordalsi

Пол: Пол:Муж

Стаж: 6 лет 7 месяцев

Сообщений: 155

Россия
Рейтинг

post 02-Май-2016 22:52 (спустя 1 минута) [-]2[+]

[Цитировать] 

killer47 писал(а):

lordalsi писал(а):

У нас эти утки сраные никуда не улетают - так в городе и зимуют, а их откармливают люди. Идёшь мимо речки, а там 100 уток этих сидят.
Что такого тебе сделали утки, что ты на них так взъелся?
Не утки, а люди, сделали ещё один вид паразитами.
info [Профиль]  [ЛС] 

paleno2000

Стаж: 2 года 11 месяцев

Сообщений: 61

Рейтинг

post 03-Май-2016 13:32 (спустя 14 часов) [-]0[+]

[Цитировать] 

Крякнутые каникулы только на Тапочек.нет kolob_190
info [Профиль]  [ЛС] 

SonicPaul

Пол: Пол:Муж

Стаж: 6 лет 9 месяцев

Сообщений: 165

Япония
Рейтинг

post 03-Май-2016 13:40 (спустя 7 минут) [-]3[+]

[Цитировать] 

Что я сейчас посмотрел... Ужасный трейлер, ужастная музыка я чуть не оглох... Кровь из ушей залила мой свитер. У мульта явно не плохой движок который и делает пол работы по визуализации... Анимация ужасна, игра актёров то же... Короче всё как всегда... Схавают!!!
info [Профиль]  [ЛС] 

post 21-Июл-2016 10:27 (спустя 2 месяца 17 дней) [-]0[+]

Топик был перенесен из форума Новинки 2015-2016 (Web-DL, DVD, HD DVD, Blu-ray, HD Rips) в форум Мультфильмы (HD Video)

Formula
 
Показать сообщения:    
Ответить на тему

Текущее время: 09-Дек 04:08

Часовой пояс: GMT + 4



Вы не можете начинать темы
Вы не можете отвечать на сообщения
Вы не можете редактировать свои сообщения
Вы не можете удалять свои сообщения
Вы не можете голосовать в опросах
Вы не можете прикреплять файлы к сообщениям
Вы не можете скачивать файлы