Ошибка

Норм и Несокрушимые / Norm of the North (Тревор Уолл) [2016, мультфильм, комедия, приключения, семейный, BDRip 1080p]

Ответить на тему
 
Автор Сообщение

BZzz

Пол: Пол:Муж

Стаж: 5 лет 1 месяц

Сообщений: 3647

Россия
Рейтинг

post 24-Апр-2016 13:25 3[+]

[Цитировать] 

Норм и Несокрушимые / Norm of the North
«Главный мультфильм весенних каникул»




Год выпуска: 2016
Страна: Индия , США
Жанр: мультфильм, комедия, приключения, семейный
Продолжительность: 01:30:31
Перевод: Профессиональный (дублированный)[цифровая лицензия iTunes]
Cубтитры: английские

Режиссер: Тревор Уолл

В ролях: Роб Шнайдер☆Rob Schneider (Norm, озвучка), Хэзер Грэм☆Heather Graham (Vera, озвучка), Кен Жонг☆Ken Jeong (Mr. Greene, озвучка), Билл Найи☆Bill Nighy (Socrates, озвучка), Колм Мини☆Colm Meaney (Grandfather, озвучка), Лоретта Дивайн☆Loretta Devine (Tamecia, озвучка), Майкл МакЭлхаттон☆Michael McElhatton (Laurence, the Actor, озвучка), Майя Кэй☆Maya Kay (Olympia, озвучка), Габриэль Иглесиас☆Gabriel Iglesias (Stan / Pablo, озвучка), Салом Дженс☆Salome Jens (Councilwoman Klubeck, озвучка), Чарльз Адлер☆Charles Adler (в титрах: Charlie Adler) (Forebear, озвучка), Гилберт Боус☆G.K. Bowes (Female Tourist, озвучка)


Описание: Встречайте! Норм и Несокрушимые — добродушный белый медведь и шустрые лемминги. Их миссия — спасти родную Арктику от коварной корпорации. Могущественный босс Мистер Грин задумал построить здесь, среди чистых льдов, город богачей, и пушистый отряд должен дать противнику бой на его территории.Норм и Несокрушимые отправляются прямо в каменные джунгли мегаполиса. Их обаяние, отвага, шутки и танцы — особенно зажигательный «Арктик Шейк» — растопят сердца горожан, но для победы мало просто стать звёздами. Впереди — настоящие испытания и вихрь приключений.

Сборы в США: $17 062 499
Сборы в России: $766 867
Рейтинг MPAA: Рекомендуется присутствие родителей



Качество: BDRip 1080p
Формат: MKV
Видео кодек: AVC
Аудио кодек: AC3
Видео: 1920x1038 (1.85:1), 23.976 fps, High@L4.1, 8 350 Kbps
Аудио #1: Rus AC3, 384 Kbps, 48.0 KHz, 6 ch
Аудио #2: Eng AC3, 640 Kbps, 48.0 KHz, 6 ch
General
Unique ID : 244296601362625929066529644340691009906 (0xB7C9D0617E4FBB3A9907721D2B970172)
Complete name : Norm.i.Nesokrushimye.2016.D.BDRip.1080p.mkv
Format : Matroska
Format version : Version 4 / Version 2
File size : 6.05 GiB
Duration : 1h 30mn
Overall bit rate : 9 564 Kbps
Encoded date : UTC 2010-02-22 21:41:31
Writing application : mkvmerge v5.8.0 ('No Sleep / Pillow') built on Nov 13 2012 19:43:22
Writing library : libebml v1.3.0 + libmatroska v1.4.0

Video
ID : 1
Format : AVC
Format/Info : Advanced Video Codec
Format profile : High@L4.1
Format settings, CABAC : Yes
Format settings, ReFrames : 4 frames
Codec ID : V_MPEG4/ISO/AVC
Bit rate : 8 350 Kbps
Width : 1 920 pixels
Height : 1 038 pixels
Display aspect ratio : 1.85:1
Frame rate mode : Variable
Original frame rate : 23.976 fps
Color space : YUV
Chroma subsampling : 4:2:0
Bit depth : 8 bits
Scan type : Progressive
Writing library : x264 core 148 r2638+53 bb29004 t_mod_Custom [8-bit@all X86_64]
Encoding settings : cabac=1 / ref=4 / deblock=1:-2:-2 / analyse=0x3:0x113 / me=umh / subme=11 / psy=1 / fade_compensate=0.00 / psy_rd=0.75:0.00 / mixed_ref=1 / me_range=32 / chroma_me=1 / trellis=2 / 8x8dct=1 / cqm=0 / deadzone=21,11 / fast_pskip=1 / chroma_qp_offset=-2 / threads=12 / lookahead_threads=2 / sliced_threads=0 / nr=0 / decimate=1 / interlaced=0 / bluray_compat=0 / constrained_intra=0 / fgo=0 / bframes=8 / b_pyramid=2 / b_adapt=2 / b_bias=0 / direct=3 / weightb=1 / open_gop=0 / weightp=2 / keyint=240 / keyint_min=23 / scenecut=40 / intra_refresh=0 / rc_lookahead=50 / rc=crf / mbtree=0 / crf=17.5000 / qcomp=0.60 / qpmin=0:0:0 / qpmax=69:69:69 / qpstep=4 / vbv_maxrate=62500 / vbv_bufsize=78125 / crf_max=0.0 / nal_hrd=none / filler=0 / ip_ratio=1.40 / pb_ratio=1.30 / aq=3:0.75 / aq-sensitivity=10.00 / aq-factor=1.00:1.00:1.00 / aq2=0 / aq3=0
Language : English
Default : Yes
Forced : No

Audio #1
ID : 2
Format : AC-3
Format/Info : Audio Coding 3
Mode extension : CM (complete main)
Format settings, Endianness : Big
Codec ID : A_AC3
Duration : 1h 30mn
Bit rate mode : Constant
Bit rate : 384 Kbps
Channel(s) : 6 channels
Channel positions : Front: L C R, Side: L R, LFE
Sampling rate : 48.0 KHz
Bit depth : 16 bits
Compression mode : Lossy
Stream size : 249 MiB (4%)
Language : Russian
Default : Yes
Forced : No

Audio #2
ID : 3
Format : AC-3
Format/Info : Audio Coding 3
Mode extension : CM (complete main)
Format settings, Endianness : Big
Codec ID : A_AC3
Duration : 1h 30mn
Bit rate mode : Constant
Bit rate : 640 Kbps
Channel(s) : 6 channels
Channel positions : Front: L C R, Side: L R, LFE
Sampling rate : 48.0 KHz
Bit depth : 16 bits
Compression mode : Lossy
Stream size : 414 MiB (7%)
Language : English
Default : No
Forced : No

Text #1
ID : 4
Format : UTF-8
Codec ID : S_TEXT/UTF8
Codec ID/Info : UTF-8 Plain Text
Title : Full
Language : English
Default : No
Forced : No

Text #2
ID : 5
Format : UTF-8
Codec ID : S_TEXT/UTF8
Codec ID/Info : UTF-8 Plain Text
Title : SDH
Language : English
Default : No
Forced : No

Menu
00:00:00.000 : en:00:00:00.000
00:06:52.162 : en:00:06:52.162
00:14:10.475 : en:00:14:10.475
00:21:09.894 : en:00:21:09.894
00:27:25.978 : en:00:27:25.978
00:35:50.690 : en:00:35:50.690
00:43:51.254 : en:00:43:51.254
00:52:15.883 : en:00:52:15.883
00:57:42.751 : en:00:57:42.751
01:04:43.296 : en:01:04:43.296
01:14:42.520 : en:01:14:42.520
01:25:29.040 : en:01:25:29.040
info [Профиль]  [ЛС] 

deodead

Пол: Пол:Муж

Стаж: 4 года 7 месяцев

Сообщений: 96

Россия
Рейтинг

post 25-Апр-2016 01:21 (спустя 11 часов) [-]2[+]

[Цитировать] 

7.6 баллов на кинопоиске и 3.7 на IMDb. Прям зеркало какое-то. Зато у всех положительных рецензий куча отрицательных баллов неподкупной аудитории. Хоть так можно ориентироваться и не тратить время на скачивание того, как "лемминги мочатся в аквариум!"
info [Профиль]  [ЛС] 

pontius_pilotus

Пол: Пол:Муж

Стаж: 4 года 10 месяцев

Сообщений: 13

Россия
Рейтинг

post 29-Апр-2016 14:09 (спустя 4 дня) [-]0[+]

[Цитировать] 

Кто- то еще верит кинопоиску?

_________________
info [Профиль]  [ЛС] 

Ekzuperi

Пол: Пол:Муж

Стаж: 4 года 10 месяцев

Сообщений: 56

Рейтинг

post 29-Апр-2016 17:29 (спустя 3 часа) [-]0[+]

[Цитировать] 

Вот и рейтинг поправился.
info [Профиль]  [ЛС] 

post 21-Июл-2016 10:25 (спустя 2 месяца 21 день) [-]0[+]

Топик был перенесен из форума Новинки 2015-2016 (Web-DL, DVD, HD DVD, Blu-ray, HD Rips) в форум Мультфильмы (HD Video)

Formula
 
Показать сообщения:    
Ответить на тему

Текущее время: 04-Дек 16:20

Часовой пояс: GMT + 4



Вы не можете начинать темы
Вы не можете отвечать на сообщения
Вы не можете редактировать свои сообщения
Вы не можете удалять свои сообщения
Вы не можете голосовать в опросах
Вы не можете прикреплять файлы к сообщениям
Вы не можете скачивать файлы