Ошибка

История одержимости: Кукла Ёцуги / Tsukimonogatari: Yotsugi Doll (TV) [1-4 из 4] [2014] [Приключения] [HDTV720p] [Любительский]

Ответить на тему
 
Автор Сообщение

Chel90RUS

Пол: Пол:Муж

Стаж: 5 лет 5 месяцев

Сообщений: 413

Россия
Рейтинг

post 20-Апр-2016 22:05 0[+]

[Цитировать] 

pic="http://static2.anidub.com/tracker/poster/eacd3419f0.jpg"
История одержимости: Кукла Ёцуги
Tsukimonogatari: Yotsugi Doll / 憑物語

Год выпуска: 2014
Жанр: Приключения
Страна: Япония
Тип: HDTV
Продолжительность: 4 серии - от 24 мин до 33 мин
Дата выпуска: 31.12.2014
Режиссер: Симбо Акиюки
Автор оригинала / Сценарист: Нисио Исин
Студия: Shaft
Озвучено: Nika Lenina, SpasmSound
Перевод:
Тайминг и работа со звуком: Sheeze
Формат файла: Mp4
Аудио: AAC 48000Hz stereo 165kbps [A: aac lc, 48000 Hz, stereo, 165 kb/s]
Видео: MPEG4 Video (H264) 1280x720 23.976fps 1779kbps [V: [Souki_Hasshou] Tsukimonogatari _ 01 [eng] (h264 high 10 L4.1, yuv420p10le, 1280x720, 1779 kb/s)]

General
Complete name : \[AniDub]_Tsukimonogatari_[01]_[720p]_[NikaLenina_SpasmSound].mp4
Format : MPEG-4
Format profile : Base Media
Codec ID : isom
File size : 337 MiB
Duration : 24mn 12s
Overall bit rate mode : Variable
Overall bit rate : 1 948 Kbps
Encoded date : UTC 2016-04-19 10:07:06
Tagged date : UTC 2016-04-19 10:07:06
Writing application : Yamb 2.1.0.0

Video
ID : 1
Format : AVC
Format/Info : Advanced Video Codec
Format profile : High 10@L4.1
Format settings, CABAC : Yes
Format settings, ReFrames : 10 frames
Codec ID : avc1
Codec ID/Info : Advanced Video Coding
Duration : 24mn 12s
Bit rate : 1 779 Kbps
Maximum bit rate : 14.0 Mbps
Width : 1 280 pixels
Height : 720 pixels
Display aspect ratio : 16:9
Frame rate mode : Constant
Frame rate : 23.976 fps
Color space : YUV
Chroma subsampling : 4:2:0
Bit depth : 10 bits
Scan type : Progressive
Bits/(Pixel*Frame) : 0.081
Stream size : 308 MiB (91%)
Title : [Souki_Hasshou] Tsukimonogatari _ 01
Writing library : x264 core 142 r2431+42 c69a006 tMod [10-bit@all X86_64]
Encoding settings : cabac=1 / ref=10 / deblock=1:1:-1 / analyse=0x3:0x133 / me=umh / subme=10 / psy=1 / fade_compensate=0.00 / psy_rd=0.50:0.00 / mixed_ref=1 / me_range=20 / chroma_me=1 / trellis=2 / 8x8dct=1 / cqm=0 / deadzone=21,11 / fast_pskip=1 / chroma_qp_offset=-4 / threads=3 / lookahead_threads=1 / sliced_threads=0 / nr=0 / decimate=1 / interlaced=0 / bluray_compat=0 / constrained_intra=0 / fgo=0 / bframes=8 / b_pyramid=2 / b_adapt=2 / b_bias=0 / direct=1 / weightb=1 / open_gop=0 / weightp=2 / keyint=250 / keyint_min=23 / scenecut=40 / intra_refresh=0 / rc_lookahead=60 / rc=crf / mbtree=1 / crf=17.0000 / qcomp=0.60 / qpmin=0:0:0 / qpmax=81:81:81 / qpstep=4 / ip_ratio=1.40 / aq=3:0.60 / aq-sensitivity=10.00 / aq-factor=1.00:1.00:1.00 / aq2=0 / aq3=0
Language : English
Encoded date : UTC 2016-04-20 06:24:15
Tagged date : UTC 2016-04-19 10:07:11

Audio
ID : 2
Format : AAC
Format/Info : Advanced Audio Codec
Format profile : LC
Codec ID : 40
Duration : 24mn 12s
Duration_FirstFrame : 64ms
Bit rate mode : Variable
Bit rate : 165 Kbps
Maximum bit rate : 203 Kbps
Channel(s) : 2 channels
Channel positions : Front: L R
Sampling rate : 48.0 KHz
Compression mode : Lossy
Stream size : 28.6 MiB (8%)
Encoded date : UTC 2016-04-19 10:07:10
Tagged date : UTC 2016-04-19 10:07:11


Описание:«Прошу, не задумываясь, покончи с этим!»
Медленно, но верно Арараги Коёми, «отводивший прежде свой взгляд от реальности», придется столкнуться с этим. Февраль приближается вместе со вступительными экзаменами в колледж. Что за «изменение», происходящие с телом Арараги, нельзя не заметить? «Истории» стремительно близятся к своему завершению.
В истории юности слова прощания неизбежны...
info [Профиль]  [ЛС] 
Показать сообщения:    
Ответить на тему

Текущее время: 07-Дек 00:00

Часовой пояс: GMT + 4



Вы не можете начинать темы
Вы не можете отвечать на сообщения
Вы не можете редактировать свои сообщения
Вы не можете удалять свои сообщения
Вы не можете голосовать в опросах
Вы не можете прикреплять файлы к сообщениям
Вы не можете скачивать файлы