Ошибка

Аджин - Получеловек / Ajin (TV) [1-17 из 24+] [2016] [Приключения] [HDTV720p] [Любительский]

Ответить на тему
 
Автор Сообщение

Chel90RUS

Пол: Пол:Муж

Стаж: 5 лет 5 месяцев

Сообщений: 413

Россия
Рейтинг

post 17-Апр-2016 16:39 1[+]

[Цитировать] 

pic="http://static2.anidub.com/tracker/poster/e5b74076e2.jpg"
Аджин - Получеловек
Ajin / 亜人 / Ajin: Demi-Human

Год выпуска: 2016
Жанр: Приключения
Страна: Япония
Тип: HDTV
Продолжительность: 13 серий - 25 мин.
Дата выпуска: c 16.01.2016 по 09.04.2016, с 08.10.2016
Режиссер: Сэсита Хироюки
Автор оригинала / Сценарист: Сакурай Гамон
Студия: Polygon Pictures
Озвучено: Trina_D, JAM
Перевод: Инна Астафьева (1-13), Anku & mutagenb (14+)
Тайминг и работа со звуком: Alden (1-14), Montee (15-17)
Формат файла: Mp4
Аудио: AAC 48000Hz stereo 192kbps [A: English [eng] (aac lc, 48000 Hz, stereo, 192 kb/s)]
Видео: MPEG4 Video (H264) 1280x720 23.976fps 2627kbps [V: [AldenSeries] (h264 high L4.1, yuv420p, 1280x720, 2627 kb/s)]

General
Complete name : \[AniDub]_Ajin_[01]_[720p_x264_Aac]_[Trina_D, JAM].mp4
Format : MPEG-4
Format profile : Base Media
Codec ID : isom
File size : 494 MiB
Duration : 24mn 26s
Overall bit rate mode : Variable
Overall bit rate : 2 823 Kbps
Encoded date : UTC 2016-01-17 17:43:32
Tagged date : UTC 2016-01-17 17:43:32

Video
ID : 1
Format : AVC
Format/Info : Advanced Video Codec
Format profile : High@L4.1
Format settings, CABAC : Yes
Format settings, ReFrames : 4 frames
Codec ID : avc1
Codec ID/Info : Advanced Video Coding
Duration : 24mn 26s
Bit rate : 2 627 Kbps
Maximum bit rate : 21.6 Mbps
Width : 1 280 pixels
Height : 720 pixels
Display aspect ratio : 16:9
Frame rate mode : Constant
Frame rate : 23.976 fps
Color space : YUV
Chroma subsampling : 4:2:0
Bit depth : 8 bits
Scan type : Progressive
Bits/(Pixel*Frame) : 0.119
Stream size : 459 MiB (93%)
Title : [AldenSeries]
Writing library : x264 core 129 r2245+729M 1a52e03
Encoding settings : cabac=1 / ref=4 / deblock=1:1:-1 / analyse=0x3:0x113 / me=umh / subme=9 / psy=1 / fade_compensate=0.00 / psy_rd=1.00:0.00 / mixed_ref=1 / me_range=24 / chroma_me=1 / trellis=2 / 8x8dct=1 / cqm=0 / deadzone=21,11 / fast_pskip=1 / chroma_qp_offset=-2 / threads=8 / lookahead_threads=1 / sliced_threads=0 / nr=0 / decimate=1 / interlaced=0 / bluray_compat=0 / constrained_intra=0 / fgo=0 / bframes=9 / b_pyramid=2 / b_adapt=2 / b_bias=0 / direct=1 / weightb=1 / open_gop=0 / weightp=2 / keyint=240 / keyint_min=24 / scenecut=40 / intra_refresh=0 / rc=crf / mbtree=0 / crf=17.5 / qcomp=0.72 / qpmin=0 / qpmax=69 / qpstep=4 / ip_ratio=1.40 / pb_ratio=1.30 / aq=1:0.85
Encoded date : UTC 2016-01-17 17:43:32
Tagged date : UTC 2016-01-17 17:43:48
Color range : Limited
Color primaries : BT.709
Transfer characteristics : BT.709
Matrix coefficients : BT.709

Audio
ID : 2
Format : AAC
Format/Info : Advanced Audio Codec
Format profile : LC
Codec ID : 40
Duration : 24mn 26s
Bit rate mode : Variable
Bit rate : 192 Kbps
Maximum bit rate : 196 Kbps
Channel(s) : channel0
Channel(s)_Original : 2 channels
Channel positions : Front: L R
Sampling rate : 48.0 KHz
Compression mode : Lossy
Stream size : 33.6 MiB (7%)
Language : English
Encoded date : UTC 2016-01-17 17:38:44
Tagged date : UTC 2016-01-17 17:43:48


Описание:Бессмертие. Не этого ли всегда жаждало человечество? Да, так было ровно до тех пор, пока по всему миру не начали появляться люди, неспособные умереть. Солдаты богов, полулюди. Загадка тысячелетия. Необъяснимый феномен эволюции и любимая игрушка учёных.
Самое пугающее свойство полулюдей в том, что ими может оказаться кто угодно. "Ты не узнаешь правду, пока не умрёшь". Нагаи Кей умер... и он больше никогда не умрёт.
Добавлены 15-17 серии 06/11/16
info [Профиль]  [ЛС] 

Chel90RUS

Пол: Пол:Муж

Стаж: 5 лет 5 месяцев

Сообщений: 413

Россия
Рейтинг

post 20-Окт-2016 12:17 (спустя 6 месяцев 2 дня) [-]0[+]

[Цитировать] 

Добавлена 14 серия 20/10/16

_________________
info [Профиль]  [ЛС] 

Chel90RUS

Пол: Пол:Муж

Стаж: 5 лет 5 месяцев

Сообщений: 413

Россия
Рейтинг

post 07-Ноя-2016 00:09 (спустя 17 дней) [-]0[+]

[Цитировать] 

Добавлены 15-17 серии 06/11/16

_________________
info [Профиль]  [ЛС] 

Alexxator

Стаж: 6 лет 2 месяца

Сообщений: 880

Рейтинг

post 08-Ноя-2016 22:37 (спустя 1 день 22 часа) [-]0[+]

[Цитировать] 

А варианта "Должен остаться только один" там нету?
info [Профиль]  [ЛС] 
Показать сообщения:    
Ответить на тему

Текущее время: 06-Дек 14:13

Часовой пояс: GMT + 4



Вы не можете начинать темы
Вы не можете отвечать на сообщения
Вы не можете редактировать свои сообщения
Вы не можете удалять свои сообщения
Вы не можете голосовать в опросах
Вы не можете прикреплять файлы к сообщениям
Вы не можете скачивать файлы