Ошибка

Том и Джерри / Tom And Jerry / Серии: 134, 136-161 из 161 (Чак Джонс / Chuck Jones) [1965-1967, США, Приключения, комедия, DVB] MVO (Рен ТВ)

Ответить на тему
 
Автор Сообщение

DARKAN

Пол: Пол:Муж

Стаж: 3 года 4 месяца

Сообщений: 56

Россия
Рейтинг

post 16-Апр-2016 21:08 1[+]

[Цитировать] 

Том и Джерри

Оригинальное название: Tom And Jerry
Года выпуска: 1965-1967
Страна: США
Жанр: Приключения, комедия
Серии: 134, 136-161 из 161
Продолжительность: 00:05:30
Перевод: Профессиональный (многоголосый, закадровый) [Рен ТВ]
Режиссёр:
  • Чак Джонс / Chuck Jones

Описание: Кот Том и мышонок Джерри - парочка, прославившаяся на весь мир. Уже несколько десятков лет Том гоняется за Джерри с неослабевающим азартом. Том придумывает всё новые и новые хитроумные уловки, чтобы поймать Джерри, но мышонок всё время выкручивается с не меньшей изобретательностью.
Качество: DVB
Формат: TS
Видео: AVC, 720x576, 25.000 fps, ~ 3.000 Kbps
Аудио: MP2, 48.0 KHz, 2 ch, 256 Kbps
134. Ah, Sweet Mouse-Story Of Life / Умный маленький мышонок (1965)
136. Bad Day At Cat Rock / Кошки-мышки на стройплощадке (1965)
137. The Brothers Carry-Mouse-Off / Кто же так ловит мышей? (1966)
138. Haunted Mouse / Вот такие фокусы (1965)
139. I’m Just Wild About Jerry / Ай, да Джерри (1965)
140. Of Feline Bondage / Мышь-невидимка (1965)
141. The Year Of The Mouse / Доигрались (1965)
142. The Cat’s Me-Ouch / Маленький, да удаленький (1965)
143. Duel Personality / Дуэль (1966)
144. Jerry, Jerry, Quite Contrary / Джерри-лунатик (1966)
145. Jerry Go Round / Цирк приехал (1965)
146. Love Me Love My Mouse / Ценный подарок (1966)
147. Puss’n’Boats / В порту (1966)
148. Filet Meow / Рыбки хочется (1966)
149. Matinee Mouse / Перемирие (1966)
150. The A-Tom-Inable Snowman / Дикий снежный кот (1966)
151. Catty-Cornered / Меж двух огней (1966)
152. Cat And Dupli-Cat / Странный двойник (1967)
153. O-Solar-Meow / Погоня в космосе (1966)
154. Guided Mouse-Ille / Электрический мышонок (1966)
155. Rock N Rodent / Мышонок-музыкант (1967)
156. Cannery Rodent / Вот так делают консервы (1967)
157. The Mouse From H / Мышонок - суперагент (1967)
158. Surf-Bored Cat / Катание на волнах (1967)
159. Shutter Bugged Cat / Кот скрытой камерой (1967)
160. Advance And Be Mechanozed / В эпоху роботов (1967)
161. Purr-Chance To Dream / Такое и во сне не приснится (1967)
 
General
ID : 1 (0x1)
Complete name : D:\IPTV\Том и Джерри (Рен ТВ)\134.История жизни милого мышонка.Ah,Sweet Mouse-Story Of Life.(1965).ts
Format : MPEG-TS
File size : 158 MiB
Duration : 5mn 30s
Overall bit rate mode : Variable
Overall bit rate : 4 006 Kbps

Video
ID : 67 (0x43)
Menu ID : 1 (0x1)
Format : AVC
Format/Info : Advanced Video Codec
Format profile : High@L3
Format settings, CABAC : Yes
Format settings, ReFrames : 3 frames
Format settings, GOP : M=4, N=28
Codec ID : 27
Duration : 5mn 30s
Bit rate : 3 549 Kbps
Width : 720 pixels
Height : 576 pixels
Display aspect ratio : 4:3
Frame rate : 25.000 fps
Standard : Component
Color space : YUV
Chroma subsampling : 4:2:0
Bit depth : 8 bits
Scan type : Interlaced
Scan type, store method : Separated fields
Scan order : Top Field First
Bits/(Pixel*Frame) : 0.342
Stream size : 140 MiB (89%)
Color range : Limited
Color primaries : BT.601 PAL
Transfer characteristics : BT.470 System B, BT.470 System G
Matrix coefficients : BT.601

Audio
ID : 68 (0x44)
Menu ID : 1 (0x1)
Format : MPEG Audio
Format version : Version 1
Format profile : Layer 2
Codec ID : 3
Duration : 5mn 30s
Bit rate mode : Constant
Bit rate : 256 Kbps
Channel(s) : 2 channels
Sampling rate : 48.0 KHz
Compression mode : Lossy
Stream size : 10.1 MiB (6%)
Language : English
info [Профиль]  [ЛС] 

Greyf24

Стаж: 2 года

Сообщений: 342

Предупреждений: 1

Зимбабве
Рейтинг

post 17-Апр-2016 20:22 (спустя 23 часа) [-]2[+]

[Цитировать] 

качну! Раздающему спасибо! Мультик детства, однако!
info [Профиль]  [ЛС] 

Leliil

Пол: Пол:Муж

Стаж: 5 лет 3 месяца

Сообщений: 832

Россия
Рейтинг

post 18-Апр-2016 09:46 (спустя 13 часов) [-]0[+]

[Цитировать] 

а смысл выкладывать 134-161 эпизоды? без первых серий

_________________
info [Профиль]  [ЛС] 

DARKAN

Пол: Пол:Муж

Стаж: 3 года 4 месяца

Сообщений: 56

Россия
Рейтинг

post 18-Апр-2016 17:25 (спустя 7 часов) [-]0[+]

[Цитировать] 

Leliil, эпизоды не 134-161, а 134 и 136-161. 135-го эпизода здесь не числится. Про смысл вы задали глупый вопрос, ибо совсем не умеете различать переводы, сделанные различными студиями озвучивания. Специально для вас объясняю, что здесь собраны все серии, которые числились в показе СТС с переводом Рен ТВ. В параллельной раздаче по вашему стилю собраны все серии уже с переводом РТР. kolob_151
info [Профиль]  [ЛС] 
Показать сообщения:    
Ответить на тему

Текущее время: 03-Дек 15:45

Часовой пояс: GMT + 4



Вы не можете начинать темы
Вы не можете отвечать на сообщения
Вы не можете редактировать свои сообщения
Вы не можете удалять свои сообщения
Вы не можете голосовать в опросах
Вы не можете прикреплять файлы к сообщениям
Вы не можете скачивать файлы