Ошибка

Фэнтези Стар Онлайн / Phantasy Star Online (TV) [1-12 из 12] [2016] [Приключения, фантастика] [HDTV720p] [Любительский]

Ответить на тему
 
Автор Сообщение

Chel90RUS

Пол: Пол:Муж

Стаж: 5 лет 5 месяцев

Сообщений: 413

Россия
Рейтинг

post 11-Апр-2016 12:58 1[+]

[Цитировать] 

pic="http://static2.anidub.com/tracker/poster/6b62403550.jpg"
Фэнтези Стар Онлайн
Phantasy Star Online / ファンタシースターオンライン2 ジ アニメーション

Год выпуска: 2016
Жанр: Приключения, фантастика
Страна: Япония
Тип: HDTV
Продолжительность: 12 серий ~ 25 мин
Дата выпуска: c 08.01.2016 по 25.03.2016
Режиссер: Кавагути Кэйитиро
Автор оригинала / Сценарист: Хирота Мицутака
Студия: Telecom Animation Film
Озвучено: Ancord, Oriko
Перевод: Miss Sherlockian
Тайминг и работа со звуком: Sheeze, Fraksinus
Формат файла: Mp4
Аудио: AAC 48000Hz stereo 192kbps [A: English [eng] (aac lc, 48000 Hz, stereo, 192 kb/s)]
Видео: MPEG4 Video (H264) 1280x720 23.976fps 2346kbps [V: Alias Data Handler [eng] (h264 main L3.2, yuv420p, 1280x720, 2346 kb/s)]

General
Complete name : \[AniDub]_Phantasy_Star_Online_2_The_Animation_[01]_[720p_x264_Aac]_[Ancord_&_Oriko].mp4
Format : MPEG-4
Format profile : Base Media
Codec ID : isom
File size : 450 MiB
Duration : 24mn 44s
Overall bit rate mode : Variable
Overall bit rate : 2 543 Kbps
Encoded date : UTC 2016-01-08 21:46:17
Tagged date : UTC 2016-01-08 21:46:17
Writing application : Yamb 2.1.0.0
Video
ID : 1
Format : AVC
Format/Info : Advanced Video Codec
Format profile : Main@L3.2
Format settings, CABAC : Yes
Format settings, ReFrames : 3 frames
Format settings, GOP : M=4, N=23
Codec ID : avc1
Codec ID/Info : Advanced Video Coding
Duration : 24mn 44s
Bit rate mode : Variable
Bit rate : 2 347 Kbps
Maximum bit rate : 19.2 Mbps
Width : 1 280 pixels
Height : 720 pixels
Display aspect ratio : 16:9
Frame rate mode : Variable
Frame rate : 23.976 fps
Minimum frame rate : 23.976 fps
Maximum frame rate : 23.988 fps
Standard : NTSC
Color space : YUV
Chroma subsampling : 4:2:0
Bit depth : 8 bits
Scan type : Progressive
Bits/(Pixel*Frame) : 0.106
Stream size : 415 MiB (92%)
Language : English
Encoded date : UTC 2016-01-08 07:24:32
Tagged date : UTC 2016-01-08 21:46:19
Color range : Limited

Audio
ID : 2
Format : AAC
Format/Info : Advanced Audio Codec
Format profile : LC
Codec ID : 40
Duration : 24mn 44s
Bit rate mode : Variable
Bit rate : 192 Kbps
Maximum bit rate : 196 Kbps
Channel(s) : 2 channels
Channel positions : Front: L R
Sampling rate : 48.0 KHz
Compression mode : Lossy
Stream size : 34.0 MiB (8%)
Language : English
Encoded date : UTC 2016-01-08 21:46:18
Tagged date : UTC 2016-01-08 21:46:19


Описание:Экранизация одноимённой игры. В игровом мире существует несколько рас и представители каждой из них сражаются друг с другом. Облачённые в высокотехнологичные боевые костюмы и наделённые особой энергией "фотонами" они командами способны выносить толпы монстров, апгрейдить навыки и вместе достигать своих целей. Благодаря такому весьма привлекательному времяпрепровождению за игрой долгое время проводят представители обоих полов.

История разворачивается на Земле со старшеклассником Ицкой Тачибаной и его школьных товарищей. Объединив свои силы они погрузились в мир "Фэнтези Стар Онлайн". Каждый из них несёт в игру свои мечты, достоинства и изъяны, но командой их делает целеустремлённость и желание стать сильнее. Впереди их ждёт долгий и тернистый путь, несущий им множество сражений.
01. RPG игра, начинающаяся со слов: "Приятно познакомиться"
02. Одинокий воин
03. Ролевая игра
04. Phantasy Star в реальной жизни
05. Айка
06. Запрет на PSO 2
07. Исчезновение
08. Переломный момент
09. Свидетельство об увольнении
10. Сосуд
11. Дарк Фалз
12. RPG игра без границ
info [Профиль]  [ЛС] 
Показать сообщения:    
Ответить на тему

Текущее время: 07-Дек 20:21

Часовой пояс: GMT + 4



Вы не можете начинать темы
Вы не можете отвечать на сообщения
Вы не можете редактировать свои сообщения
Вы не можете удалять свои сообщения
Вы не можете голосовать в опросах
Вы не можете прикреплять файлы к сообщениям
Вы не можете скачивать файлы