Ошибка

Пожиратель богов / God Eater (TV) [1-13 Из 13] [2015] [Приключения] [HDTV720p] [Любительский]

Ответить на тему
 
Автор Сообщение

Chel90RUS

Пол: Пол:Муж

Стаж: 5 лет 5 месяцев

Сообщений: 413

Россия
Рейтинг

post 11-Апр-2016 12:31 1[+]

[Цитировать] 

pic="http://static2.anidub.com/tracker/poster/96400f318f.jpg"
Пожиратель богов
God Eater / ゴッドイーター

Год выпуска: 2015
Жанр: Приключения
Страна: Япония
Тип: HDTV
Продолжительность: 13 серий ~ 25 мин
Дата выпуска: c 12.07.2015 по 26.03.2016
Режиссер: Хирао Такаюки
Автор оригинала / Сценарист: Хирао Такаюки
Студия: Ufotable
Озвучено: JAM, Trina_D
Тайминг и работа со звуком: Sakuragi_R
Формат файла: Mp4
Аудио: AAC 48000Hz stereo 128kbps [A: Russian [rus] (aac lc, 48000 Hz, stereo, 128 kb/s)]
Видео: MPEG4 Video (H264) 1280x720 23.976fps 3454kbps [V: 264 (h264 high L4.1, yuv420p, 1280x720, 3454 kb/s)]

General
Complete name : \[AniDub]_God_Eater_[01]_[720p_x264_Aac]_[JAM_Trina_D].mp4
Format : MPEG-4
Format profile : Base Media
Codec ID : isom
File size : 616 MiB
Duration : 23mn 59s
Overall bit rate mode : Variable
Overall bit rate : 3 586 Kbps
Encoded date : UTC 2015-07-12 17:25:31
Tagged date : UTC 2015-07-12 17:25:31
Writing application : Yamb 2.1.0.0
Video
ID : 1
Format : AVC
Format/Info : Advanced Video Codec
Format profile : High@L4.1
Format settings, CABAC : Yes
Format settings, ReFrames : 4 frames
Codec ID : avc1
Codec ID/Info : Advanced Video Coding
Duration : 23mn 59s
Bit rate : 3 454 Kbps
Maximum bit rate : 13.5 Mbps
Width : 1 280 pixels
Height : 720 pixels
Display aspect ratio : 16:9
Frame rate mode : Constant
Frame rate : 23.976 fps
Color space : YUV
Chroma subsampling : 4:2:0
Bit depth : 8 bits
Scan type : Progressive
Bits/(Pixel*Frame) : 0.156
Stream size : 593 MiB (96%)
Title : 264
Writing library : x264 core 129 r2245+729M 1a52e03
Encoding settings : cabac=1 / ref=4 / deblock=1:1:-1 / analyse=0x3:0x113 / me=umh / subme=9 / psy=1 / fade_compensate=0.00 / psy_rd=1.00:0.00 / mixed_ref=1 / me_range=24 / chroma_me=1 / trellis=2 / 8x8dct=1 / cqm=0 / deadzone=21,11 / fast_pskip=1 / chroma_qp_offset=-2 / threads=8 / lookahead_threads=1 / sliced_threads=0 / nr=0 / decimate=1 / interlaced=0 / bluray_compat=0 / constrained_intra=0 / fgo=0 / bframes=9 / b_pyramid=2 / b_adapt=2 / b_bias=0 / direct=1 / weightb=1 / open_gop=0 / weightp=2 / keyint=240 / keyint_min=24 / scenecut=40 / intra_refresh=0 / rc=crf / mbtree=0 / crf=18.5 / qcomp=0.72 / qpmin=0 / qpmax=69 / qpstep=4 / ip_ratio=1.40 / pb_ratio=1.30 / aq=1:0.85
Encoded date : UTC 2015-07-12 18:23:43
Tagged date : UTC 2015-07-12 17:26:20
Color range : Limited
Color primaries : BT.709
Transfer characteristics : BT.709
Matrix coefficients : BT.709

Audio
ID : 2
Format : AAC
Format/Info : Advanced Audio Codec
Format profile : LC
Codec ID : 40
Duration : 23mn 59s
Bit rate mode : Variable
Bit rate : 128 Kbps
Maximum bit rate : 138 Kbps
Channel(s) : 2 channels
Channel positions : Front: L R
Sampling rate : 48.0 KHz
Compression mode : Lossy
Stream size : 22.0 MiB (4%)
Language : Russian
Encoded date : UTC 2015-07-12 17:26:20
Tagged date : UTC 2015-07-12 17:26:20


Описание:Действие этого аниме разворачивается в 2071 году на Дальнем Востоке, где идёт изнурительная война людей с неизвестной формой жизни — Клетками Оракула, которая, словно чума, распространилась по всему миру около двадцати лет назад и начала поглощать всё живое. Клетки Оракула могут принимать вид «яростных богов» — Арагами — ужасных, кровожадных чудовищ, не знающих пощады и которых нельзя убить с помощью обычного оружия. Для борьбы с этими тварями была создана специальная организация «Фенрир». Её бойцы используют особый вид оружия, так называемые «божественные механизмы» или Джинки — «живое» оружие, созданное из клеток Арагами, которое может принимать форму огнестрела или клинка, или того и другого вместе. За умение истреблять «яростных богов» с помощью «божественных механизмов» бойцы получили прозвище Пожирателей Богов.
info [Профиль]  [ЛС] 

Vse Prosto

Стаж: 6 лет 8 месяцев

Сообщений: 495

Предупреждений: 1

СССР
Рейтинг

post 12-Апр-2016 03:53 (спустя 15 часов) [-]-1[+]

[Цитировать] 

есть ведь полно озвучек,но на трекере почему то только с анидаба,зачем вобще раздел с аниме если тут только параша а норм.контента нет.

_________________
Спасибо за минусы,так же прошу меня не плюсовать.
info [Профиль]  [ЛС] 
Показать сообщения:    
Ответить на тему

Текущее время: 03-Дек 23:52

Часовой пояс: GMT + 4



Вы не можете начинать темы
Вы не можете отвечать на сообщения
Вы не можете редактировать свои сообщения
Вы не можете удалять свои сообщения
Вы не можете голосовать в опросах
Вы не можете прикреплять файлы к сообщениям
Вы не можете скачивать файлы