Ошибка

Четыре ритма сквозь синее небо / Ao no Kanata no Four Rhythm (TV) [1-12 из 12] [2016] [Романтика] [HDTV720p] [Любительский]

Ответить на тему
 
Автор Сообщение

Chel90RUS

Пол: Пол:Муж

Стаж: 5 лет 5 месяцев

Сообщений: 413

Россия
Рейтинг

post 11-Апр-2016 12:00 1[+]

[Цитировать] 

pic="http://static2.anidub.com/tracker/poster/330d5bdbde.jpg"
Четыре ритма сквозь синее небо
Ao no Kanata no Four Rhythm / 蒼の彼方のフォーリズム / Aokana: Four Rhythm Across the Blue

Год выпуска: 2016
Жанр: Романтика
Страна: Япония
Тип: HDTV
Продолжительность: 12 серий ~ 25 мин
Дата выпуска: с 12.01.2016 по 29.03.2016
Режиссер: Ойдзаки Фумитоси
Автор оригинала / Сценарист: Ёсида Рэйко
Студия: Gonzo
Озвучено: Ancord, Jade, Гамлетка Цезаревна
Перевод: Dreamers Team
Тайминг и работа со звуком: Nоаh, EJIEKTPO
Формат файла: Mp4
Аудио: AAC 48000Hz stereo 192kbps [A: English [eng] (aac lc, 48000 Hz, stereo, 192 kb/s)]
Видео: MPEG4 Video (H264) 1280x720 23.976fps 1648kbps [V: Alias Data Handler [eng] (h264 main L3.2, yuv420p, 1280x720, 1648 kb/s)]

General
Complete name : /[AniDub]_Ao_no_Kanata_no_Four_Rhythm_[01]_[720p]_[Ancord_Jade_Hamletka_Cezarevna].mp4
Format : MPEG-4
Format profile : Base Media
Codec ID : isom
File size : 319 MiB
Duration : 24mn 10s
Overall bit rate mode : Variable
Overall bit rate : 1 844 Kbps
Encoded date : UTC 2016-01-14 14:58:45
Tagged date : UTC 2016-01-14 14:58:45
Writing application : Yamb 2.1.0.0

Video
ID : 1
Format : AVC
Format/Info : Advanced Video Codec
Format profile : Main@L3.2
Format settings, CABAC : Yes
Format settings, ReFrames : 3 frames
Codec ID : avc1
Codec ID/Info : Advanced Video Coding
Duration : 24mn 10s
Bit rate mode : Variable
Bit rate : 1 648 Kbps
Maximum bit rate : 9 850 Kbps
Width : 1 280 pixels
Height : 720 pixels
Display aspect ratio : 16:9
Frame rate mode : Variable
Frame rate : 23.976 fps
Minimum frame rate : 23.976 fps
Maximum frame rate : 23.988 fps
Standard : NTSC
Color space : YUV
Chroma subsampling : 4:2:0
Bit depth : 8 bits
Scan type : Progressive
Bits/(Pixel*Frame) : 0.075
Stream size : 285 MiB (89%)
Language : English
Encoded date : UTC 2016-01-12 13:32:16
Tagged date : UTC 2016-01-14 14:58:46
Color range : Limited

Audio
ID : 2
Format : AAC
Format/Info : Advanced Audio Codec
Format profile : LC
Codec ID : 40
Duration : 24mn 10s
Bit rate mode : Variable
Bit rate : 192 Kbps
Maximum bit rate : 196 Kbps
Channel(s) : 2 channels
Channel positions : Front: L R
Sampling rate : 48.0 KHz
Compression mode : Lossy
Stream size : 33.2 MiB (10%)
Language : English
Encoded date : UTC 2016-01-14 14:58:45
Tagged date : UTC 2016-01-14 14:58:46


Описание:Главный герой, Хината Масая, ещё в раннем детстве влюбился в небо, под влиянием девушки по имени Кагами Аой, которая была ему как старшая сестра. С её подачи он стал скайуокером, как называют участников "Воздушной Арены", и под её чутким руководством добился в этом спорте немалых успехов. Однако, не смотря на то, что ему прочили великое будущее, после некоторых трагичных для себя событий, он уходит из спорта, и больше никогда не поднимается в небо без крайней необходимости.
Но всё меняется в старшей школе, когда в его класс переводится приехавшая с "материка" девушка, Курасина Асука. Аой, ставшая к тому времени классным руководителем Масаи, назначает его ответственным за адаптацию Асуки в новой школе, и поручает ему научить её пользоваться гравитационными ботинками. Вскоре девушка влюбляется в небо, и в ней просыпается та же страсть, что когда-то горела в Масае. Асука узнаёт об "Арене", сходу будучи вынужденной принять вызов второго номера сильнейшей команды островов. Несмотря на сокрушительное поражение, она решает, что нашла себя, и вместе с новыми подругами возрождает школьный клуб "Арены", состоящий на тот момент лишь из простодушного парня по имени Сион, помешанного на своих мускулах. Не в силах смотреть на тот ужас, которым вся эта компания занимается, пытаясь изобразить "тренировку", Масая соглашается вступить в клуб в роли тренера. И не смотря на то, что у ребят нет даже клубной комнаты - приходится ютиться в брошенном автобусе, они ставят перед собой цель попасть в восьмёрку на чемпионате.
Теперь от Асуки и её подруг зависит, вернёт ли Масая свою любовь к небу и обретёт ли он новую любовь.
info [Профиль]  [ЛС] 

crewdk

Пол: Пол:Муж

Стаж: 3 года 9 месяцев

Сообщений: 8

Россия
Рейтинг

post 14-Апр-2016 01:45 (спустя 2 дня 13 часов) [-]0[+]

[Цитировать] 

Безмерно порадовала реклама русской теры прямо посреди серии. Спасибо. Так держать!
info [Профиль]  [ЛС] 
Показать сообщения:    
Ответить на тему

Текущее время: 09-Дек 09:55

Часовой пояс: GMT + 4



Вы не можете начинать темы
Вы не можете отвечать на сообщения
Вы не можете редактировать свои сообщения
Вы не можете удалять свои сообщения
Вы не можете голосовать в опросах
Вы не можете прикреплять файлы к сообщениям
Вы не можете скачивать файлы