Ошибка

Кабанэри железной крепости / Koutetsujou no Kabaneri [TV] [1-12 из 12] [2016] [приключения, экшен] [HDTVRip] [720p] [Субтитры (JAP)]

Ответить на тему
 
Автор Сообщение

anoningen

Стаж: 3 года 6 месяцев

Сообщений: 326

Самоа
Рейтинг

post 09-Апр-2016 02:58 2[+]

[Цитировать] 

Кабанэри железной крепости
Koutetsujou no Kabaneri | Kabaneri of the Iron Fortress | 甲鉄城のカバネリ

Год выпуска:
2016 г.
Тип: TV
Жанр: приключения, экшен
Режиссер: Араки Тэцуро
Сценарист: Окоти Итиро
Студия:
Продолжительность: 12 эп. по 25 мин
Русские субтитры: ASS, внешним файлом

Субтитры 1:
Переводчик: Nesitach
Редактор: Holydarkness
Редактор/Тайм-код/Оформление: Stan WarHammer

Субтитры 2:
Переводчик: AleX_MytH
Редактор/Тайм-код/Оформление: St_Ranger

Описание: Когда мир находится на пике индустриальной революции, внезапно появляется чудовище. Его можно победить, только пронзив сердце, скрытое под слоем железа. От одного его укуса люди заражаются и становятся агрессивной нежитью — кабанэ.
На дальневосточном острове Хиномото ради защиты от этих монстров люди построили специальные станции, между которыми передвигаются с помощью парового локомотива Хаяджиро. На станции Араганэ живёт Икома, мальчик, который помогал строить локомотив. Чтобы победить монстров, он создал собственное оружие — Цуранукизуцу. Однажды он встречает девушку, Мумэй, освобождённую от обязательной инспекции. Ночью они видят, что Хаяджиро вышел из-под контроля, его персонал стал монстрами, а кабанэ нападают на станцию. Однако именно такой возможности Икома и ждал..
Автор рипа: Ohys-Raws
Качество: HDTVRip
Формат видео: MPEG-4
Видео: AVC, 8 бит, 1280x720; 23.976 кадра/сек; 2307 Кбит/сек, (16:9)
Аудио: AAC, 48,0 КГц, ~219 Кбит/сек, 2 канала
Общее
Полное имя : G:\Anime\Koutetsujou no Kabaneri\[Ohys-Raws] Koutetsujou no Kabaneri - 01 (CX 1280x720 x264 AAC).mp4
Формат : MPEG-4
Профиль формата : Base Media
Идентификатор кодека : isom (isom/avc1)
Размер файла : 416 Мбайт
Продолжительность : 23 м.
Режим общего битрейта : Переменный
Общий поток : 2530 Кбит/сек
Дата кодирования : UTC 2016-04-07 16:13:47
Дата пометки : UTC 2016-04-07 16:13:47

Видео
Идентификатор : 1
Формат : AVC
Формат/Информация : Advanced Video Codec
Профиль формата : Main@L4.1
Параметр CABAC формата : Да
Параметр ReFrames формата : 4 кадра
Идентификатор кодека : avc1
Идентификатор кодека/Информация : Advanced Video Coding
Продолжительность : 23 м.
Битрейт : 2307 Кбит/сек
Максимальный битрейт : 10,0 Мбит/сек
Ширина : 1280 пикселей
Высота : 720 пикселей
Соотношение сторон : 16:9
Режим частоты кадров : Постоянный
Частота кадров : 23,976 (24000/1001) кадра/сек
Цветовое пространство : YUV
Субдискретизация насыщенности : 4:2:0
Битовая глубина : 8 бит
Тип развёртки : Прогрессивная
Бит/(Пиксели*Кадры) : 0.104
Размер потока : 380 Мбайт (91%)
Библиотека кодирования : x264 core 148 r2665 a01e339
Настройки программы : cabac=1 / ref=3 / deblock=1:0:0 / analyse=0x1:0x111 / me=hex / subme=7 / psy=1 / psy_rd=1.00:0.00 / mixed_ref=1 / me_range=16 / chroma_me=1 / trellis=1 / 8x8dct=0 / cqm=0 / deadzone=21,11 / fast_pskip=1 / chroma_qp_offset=-2 / threads=12 / lookahead_threads=2 / sliced_threads=0 / nr=0 / decimate=1 / interlaced=0 / bluray_compat=0 / constrained_intra=0 / bframes=3 / b_pyramid=2 / b_adapt=1 / b_bias=0 / direct=1 / weightb=1 / open_gop=0 / weightp=2 / keyint=240 / keyint_min=1 / scenecut=40 / intra_refresh=0 / rc_lookahead=40 / rc=crf / mbtree=1 / crf=20.0 / qcomp=0.60 / qpmin=0 / qpmax=69 / qpstep=4 / ip_ratio=1.40 / aq=1:1.50
Дата кодирования : UTC 2016-04-07 16:13:47
Дата пометки : UTC 2016-04-07 16:13:49
Цветовой диапазон : Limited
Основные цвета : BT.709
Характеристики трансфера : BT.709
Коэффициенты матрицы : BT.709

Аудио
Идентификатор : 2
Формат : AAC
Формат/Информация : Advanced Audio Codec
Профиль формата : LC
Идентификатор кодека : 40
Продолжительность : 23 м.
Вид битрейта : Переменный
Битрейт : 219 Кбит/сек
Максимальный битрейт : 253 Кбит/сек
Каналы : 2 канала
Расположение каналов : Front: L R
Частота : 48,0 КГц
Частота кадров : 46,875 кадров/сек (1024 spf)
Метод сжатия : С потерями
Размер потока : 36,0 Мбайт (9%)
Язык : Japanese
Дата кодирования : UTC 2016-04-07 16:03:18
Дата пометки : UTC 2016-04-07 16:13:49
02.07.2016. Добавлена 12 серия.
info [Профиль]  [ЛС] 

Aldorr

Стаж: 7 лет 8 месяцев

Сообщений: 213

Украина
Рейтинг

post 09-Апр-2016 13:43 (спустя 10 часов) [-]1[+]

[Цитировать] 

Атака на Титана взгялд в профиль Улыбаюсь

_________________
догорает свеча,
что-то тихо шепча
молчаливой
громаде
меча
info [Профиль]  [ЛС] 

anoningen

Стаж: 3 года 6 месяцев

Сообщений: 326

Самоа
Рейтинг

post 17-Апр-2016 00:07 (спустя 7 дней) [-]0[+]

[Цитировать] 

Видео на вторую серию пока от [AnonSubs] с китайским хардсабом. Как появится равка от охисов - заменю.
info [Профиль]  [ЛС] 

anoningen

Стаж: 3 года 6 месяцев

Сообщений: 326

Самоа
Рейтинг

post 22-Апр-2016 01:54 (спустя 5 дней) [-]0[+]

[Цитировать] 

Заменил видео второй серии на равку от охисов.
info [Профиль]  [ЛС] 

Ridan

Пол: Пол:Муж

Стаж: 4 года 3 месяца

Сообщений: 22

Рейтинг

post 22-Апр-2016 16:53 (спустя 14 часов) [-]1[+]

[Цитировать] 

Cтимпанк сеттинг, самураи на бронепоезде против зомби.
Годный воробей, неплохие дизайны, бодрый экшн. Напрягает странный сдвиг стиля при рисовке женских лиц.
Будем посмотреть.
info [Профиль]  [ЛС] 

anoningen

Стаж: 3 года 6 месяцев

Сообщений: 326

Самоа
Рейтинг

post 30-Апр-2016 00:21 (спустя 7 дней) [-]0[+]

[Цитировать] 

Добавил 3 серию.
info [Профиль]  [ЛС] 

anoningen

Стаж: 3 года 6 месяцев

Сообщений: 326

Самоа
Рейтинг

post 06-Май-2016 20:44 (спустя 6 дней) [-]0[+]

[Цитировать] 

Добавил 4 серию.
info [Профиль]  [ЛС] 

anoningen

Стаж: 3 года 6 месяцев

Сообщений: 326

Самоа
Рейтинг

post 14-Май-2016 00:49 (спустя 7 дней) [-]0[+]

[Цитировать] 

Добавил 5 серию.
info [Профиль]  [ЛС] 

anoningen

Стаж: 3 года 6 месяцев

Сообщений: 326

Самоа
Рейтинг

post 20-Май-2016 10:13 (спустя 6 дней) [-]0[+]

[Цитировать] 

Добавил 6 серию. Раздавать начну после 21.00 по Москве.
info [Профиль]  [ЛС] 

anoningen

Стаж: 3 года 6 месяцев

Сообщений: 326

Самоа
Рейтинг

post 31-Май-2016 00:25 (спустя 10 дней) [-]0[+]

[Цитировать] 

Добавил 7 серию.
info [Профиль]  [ЛС] 

anoningen

Стаж: 3 года 6 месяцев

Сообщений: 326

Самоа
Рейтинг

post 04-Июн-2016 11:38 (спустя 4 дня) [-]0[+]

[Цитировать] 

Добавил 8 серию.
info [Профиль]  [ЛС] 

anoningen

Стаж: 3 года 6 месяцев

Сообщений: 326

Самоа
Рейтинг

post 17-Июн-2016 21:19 (спустя 13 дней) [-]0[+]

[Цитировать] 

Добавил 9 и 10 серии.
info [Профиль]  [ЛС] 

anoningen

Стаж: 3 года 6 месяцев

Сообщений: 326

Самоа
Рейтинг

post 27-Июн-2016 11:17 (спустя 9 дней) [-]0[+]

[Цитировать] 

Добавил 11 серию.
info [Профиль]  [ЛС] 

anoningen

Стаж: 3 года 6 месяцев

Сообщений: 326

Самоа
Рейтинг

post 02-Июл-2016 11:57 (спустя 5 дней) [-]1[+]

[Цитировать] 

Добавил 12 серию.
info [Профиль]  [ЛС] 
Показать сообщения:    
Ответить на тему

Текущее время: 08-Дек 14:01

Часовой пояс: GMT + 4



Вы не можете начинать темы
Вы не можете отвечать на сообщения
Вы не можете редактировать свои сообщения
Вы не можете удалять свои сообщения
Вы не можете голосовать в опросах
Вы не можете прикреплять файлы к сообщениям
Вы не можете скачивать файлы