Ошибка

Гримгар из Пепла и Иллюзий / Hai to Gensou no Grimgar (TV) [1-12 из 12 + 2.5 серия] [2016] [Приключения, фэнтези, киберфэнтези] [HDTV720p] [Профессиональный (Многоголосый)]

Ответить на тему
 
Автор Сообщение

Chel90RUS

Пол: Пол:Муж

Стаж: 5 лет 5 месяцев

Сообщений: 413

Россия
Рейтинг

post 07-Апр-2016 01:09 0[+]

[Цитировать] 

pic="http://static2.anidub.com/tracker/poster/2e40e58687.jpg"
Гримгар из Пепла и Иллюзий
Grimgar of Fantasy and Ash / Hai to Gensou no Grimgar / 灰と幻想のグリムガル

Год выпуска: 2016
Жанр: Приключения, фэнтези, киберфэнтези
Страна: Япония
Тип: HDTV
Продолжительность: 12 серий ~ 25 мин
Дата выпуска: c 11.01.2016 по 28.03.2016
Режиссер: Накамура Рёсукэ
Автор оригинала / Сценарист: Дзюмондзи Ао
Озвучено: Студийная банда AD Давид Петросян, Влад Дуров, Гамлетка Цезаревна, 9й Неизвестный, Торгиль, Demetra, Esther, Trina_D, JAM, BalFor, Cuba77
Перевод: Bobby Deimos
Тайминг и работа со звуком: Al'pair
Студия: A-1 Pictures
Аудио: AAC 48000Hz stereo 192kbps [A: Russian [rus] (aac lc, 48000 Hz, stereo, 192 kb/s)]
Видео: MPEG4 Video (H264) 1280x720 23.976fps 2567kbps [V: 264 (h264 high L4.1, yuv420p, 1280x720, 2567 kb/s)]

General
Complete name : \[AniDub]_Hai_to_Gensou_no_Grimgar_[01]_[720p]_[ADStudio].mp4
Format : MPEG-4
Format profile : Base Media
Codec ID : isom
File size : 474 MiB
Duration : 24mn 0s
Overall bit rate mode : Variable
Overall bit rate : 2 764 Kbps
Encoded date : UTC 2016-01-17 17:03:09
Tagged date : UTC 2016-01-17 17:03:09
Writing application : Yamb 2.1.0.0 [http://yamb.unite-video.com]

Video
ID : 1
Format : AVC
Format/Info : Advanced Video Codec
Format profile : High@L4.1
Format settings, CABAC : Yes
Format settings, ReFrames : 4 frames
Codec ID : avc1
Codec ID/Info : Advanced Video Coding
Duration : 24mn 0s
Bit rate : 2 568 Kbps
Maximum bit rate : 12.9 Mbps
Width : 1 280 pixels
Height : 720 pixels
Display aspect ratio : 16:9
Frame rate mode : Constant
Frame rate : 23.976 fps
Color space : YUV
Chroma subsampling : 4:2:0
Bit depth : 8 bits
Scan type : Progressive
Bits/(Pixel*Frame) : 0.116
Stream size : 441 MiB (93%)
Title : 264
Writing library : x264 core 129 r2245+729M 1a52e03
Encoding settings : cabac=1 / ref=4 / deblock=1:1:-1 / analyse=0x3:0x113 / me=umh / subme=9 / psy=1 / fade_compensate=0.00 / psy_rd=1.00:0.00 / mixed_ref=1 / me_range=24 / chroma_me=1 / trellis=2 / 8x8dct=1 / cqm=0 / deadzone=21,11 / fast_pskip=1 / chroma_qp_offset=-2 / threads=8 / lookahead_threads=1 / sliced_threads=0 / nr=0 / decimate=1 / interlaced=0 / bluray_compat=0 / constrained_intra=0 / fgo=0 / bframes=9 / b_pyramid=2 / b_adapt=2 / b_bias=0 / direct=1 / weightb=1 / open_gop=0 / weightp=2 / keyint=240 / keyint_min=24 / scenecut=40 / intra_refresh=0 / rc=crf / mbtree=0 / crf=18.5 / qcomp=0.72 / qpmin=0 / qpmax=69 / qpstep=4 / ip_ratio=1.40 / pb_ratio=1.30 / aq=1:0.85
Encoded date : UTC 2016-01-11 06:45:00
Tagged date : UTC 2016-01-17 17:03:14
Color range : Limited
Color primaries : BT.709
Transfer characteristics : BT.709
Matrix coefficients : BT.709

Audio
ID : 2
Format : AAC
Format/Info : Advanced Audio Codec
Format profile : LC
Codec ID : 40
Duration : 23mn 59s
Bit rate mode : Variable
Bit rate : 192 Kbps
Maximum bit rate : 200 Kbps
Channel(s) : 2 channels
Channel positions : Front: L R
Sampling rate : 48.0 KHz
Compression mode : Lossy
Stream size : 33.0 MiB (7%)
Language : Russian
Encoded date : UTC 2016-01-17 17:03:14
Tagged date : UTC 2016-01-17 17:03:14


Описание:Однажды Харухиро приходит в себя в незнакомой пещере. Он, равно как и оказавшиеся вместе с ним люди, не помнит о себе ничего кроме имени. Когда персонажи выходят из пещеры, их проводят в незнакомый город и предлагают стать солдатами сражающимися с окружающими город монстрами. Так как других способов заработка в городе не много, героям приходится согласиться. Однако, члены группы Харухиро оказываются на столько слабы, что с трудом могут даже оплатить проживание и еду.
info [Профиль]  [ЛС] 

AsakuraHao

Пол: Пол:Муж

Стаж: 7 лет 6 месяцев

Сообщений: 122

Япония
Рейтинг

post 07-Апр-2016 23:28 (спустя 22 часа) [-]0[+]

[Цитировать] 

не гаремник?

_________________
                                                                                                                            
info [Профиль]  [ЛС] 

Chel90RUS

Пол: Пол:Муж

Стаж: 5 лет 5 месяцев

Сообщений: 413

Россия
Рейтинг

post 08-Апр-2016 00:19 (спустя 50 минут) [-]1[+]

[Цитировать] 

AsakuraHao писал(а):

не гаремник?
Да, не гаремник

_________________
info [Профиль]  [ЛС] 

gaa080

Стаж: 3 года 9 месяцев

Сообщений: 3

Рейтинг

post 08-Апр-2016 00:57 (спустя 38 минут) [-]0[+]

[Цитировать] 

примерно одинаковое количество персонажей обоих полов
info [Профиль]  [ЛС] 

Chel90RUS

Пол: Пол:Муж

Стаж: 5 лет 5 месяцев

Сообщений: 413

Россия
Рейтинг

post 08-Апр-2016 00:59 (спустя 1 минута) [-]0[+]

[Цитировать] 

gaa080 писал(а):

одинаковое количество персонажей обоих полов
Не спойлери

_________________
info [Профиль]  [ЛС] 
Показать сообщения:    
Ответить на тему

Текущее время: 04-Дек 01:46

Часовой пояс: GMT + 4



Вы не можете начинать темы
Вы не можете отвечать на сообщения
Вы не можете редактировать свои сообщения
Вы не можете удалять свои сообщения
Вы не можете голосовать в опросах
Вы не можете прикреплять файлы к сообщениям
Вы не можете скачивать файлы