Ошибка

Дух в теле Пандоры / Koukaku no Pandora: Ghost Urn (TV) [1-12 из 12] [2016] [Фантастика, комедия, этти] [HDTV720p] [Любительский (Многоголосый)]

Ответить на тему
 
Автор Сообщение

Chel90RUS

Пол: Пол:Муж

Стаж: 5 лет 5 месяцев

Сообщений: 413

Россия
Рейтинг

post 07-Апр-2016 00:46 0[+]

[Цитировать] 

pic="http://static2.anidub.com/tracker/poster/2518142b88.jpg"
Дух в теле Пандоры
Koukaku no Pandora: Ghost Urn / Pandora in the Crimson Shell: Ghost Urn / 紅殻のパンドラ Ghost Urn

Год выпуска: 2016
Жанр: Фантастика, комедия, этти
Страна: Япония
Тип: HDTV
Продолжительность: 12 серий ~ 25 мин
Дата выпуска: с 08.01.2016 по 25.03.2016
Режиссер: Нава Мунэнори
Автор оригинала / Сценарист: Сиро Масамунэ
Студия: Studio Gokumi
Озвучено: Nika Lenina, Jade, Fuurou
Перевод: alkopone, Rhododendron
Тайминг и работа со звуком: IdiAlex
Формат файла: Mp4
Аудио: AAC 48000Hz stereo 192kbps [A: English [eng] (aac lc, 48000 Hz, stereo, 192 kb/s)]
Видео: MPEG4 Video (H264) 1280x720 23.976fps 2174kbps [V: 264 (h264 high L4.1, yuv420p, 1280x720, 2174 kb/s)]

General
Complete name : \[AniDub]_Koukaku_no_Pandora_[01]_[720p_x264_Aac]_[MVO].mp4
Format : MPEG-4
Format profile : Base Media
Codec ID : isom
File size : 415 MiB
Duration : 24mn 29s
Overall bit rate mode : Variable
Overall bit rate : 2 370 Kbps
Encoded date : UTC 2016-01-15 09:48:04
Tagged date : UTC 2016-01-15 09:48:04
Writing application : Yamb 2.1.0.0
Video
ID : 1
Format : AVC
Format/Info : Advanced Video Codec
Format profile : High@L4.1
Format settings, CABAC : Yes
Format settings, ReFrames : 4 frames
Codec ID : avc1
Codec ID/Info : Advanced Video Coding
Duration : 24mn 29s
Bit rate : 2 174 Kbps
Maximum bit rate : 10.9 Mbps
Width : 1 280 pixels
Height : 720 pixels
Display aspect ratio : 16:9
Frame rate mode : Constant
Frame rate : 23.976 fps
Color space : YUV
Chroma subsampling : 4:2:0
Bit depth : 8 bits
Scan type : Progressive
Bits/(Pixel*Frame) : 0.098
Stream size : 381 MiB (92%)
Title : 264
Writing library : x264 core 129 r2245+729M 1a52e03
Encoding settings : cabac=1 / ref=4 / deblock=1:1:-1 / analyse=0x3:0x113 / me=umh / subme=9 / psy=1 / fade_compensate=0.00 / psy_rd=1.00:0.00 / mixed_ref=1 / me_range=24 / chroma_me=1 / trellis=2 / 8x8dct=1 / cqm=0 / deadzone=21,11 / fast_pskip=1 / chroma_qp_offset=-2 / threads=8 / lookahead_threads=1 / sliced_threads=0 / nr=0 / decimate=1 / interlaced=0 / bluray_compat=0 / constrained_intra=0 / fgo=0 / bframes=9 / b_pyramid=2 / b_adapt=2 / b_bias=0 / direct=1 / weightb=1 / open_gop=0 / weightp=2 / keyint=240 / keyint_min=24 / scenecut=40 / intra_refresh=0 / rc=crf / mbtree=0 / crf=18.5 / qcomp=0.72 / qpmin=0 / qpmax=69 / qpstep=4 / ip_ratio=1.40 / pb_ratio=1.30 / aq=1:0.85
Encoded date : UTC 2016-01-08 19:34:27
Tagged date : UTC 2016-01-15 09:48:05
Color range : Limited
Color primaries : BT.709
Transfer characteristics : BT.709
Matrix coefficients : BT.709

Audio
ID : 2
Format : AAC
Format/Info : Advanced Audio Codec
Format profile : LC
Codec ID : 40
Duration : 24mn 29s
Bit rate mode : Variable
Bit rate : 192 Kbps
Maximum bit rate : 196 Kbps
Channel(s) : 2 channels
Channel positions : Front: L R
Sampling rate : 48.0 KHz
Compression mode : Lossy
Stream size : 33.7 MiB (8%)
Language : English
Encoded date : UTC 2016-01-15 09:48:05
Tagged date : UTC 2016-01-15 09:48:05


Описание:В эпоху, когда широкомасштабные природные катаклизмы часто случаются во всем мире, когда киборги и автономные роботы начинают появляться на рынке у технологически развитых наций, и крупные мировые державы соревнуются за технологии и ресурсы, пропасть между богатыми и бедными растет и будущее выглядит мрачно для бедных... Это история о том, как две кибернетически улучшенные девочки встречаются, чтобы изменить этот мир
info [Профиль]  [ЛС] 
Показать сообщения:    
Ответить на тему

Текущее время: 09-Дек 19:34

Часовой пояс: GMT + 4



Вы не можете начинать темы
Вы не можете отвечать на сообщения
Вы не можете редактировать свои сообщения
Вы не можете удалять свои сообщения
Вы не можете голосовать в опросах
Вы не можете прикреплять файлы к сообщениям
Вы не можете скачивать файлы