Ошибка

Хроники непобедимого Бахамута / Saijaku Muhai no Bahamut (TV) [1-12 Из 12] [2016] [Боевик, комедия, романтика, школа, этти] [HDTV720p] [Любительский]

Ответить на тему
 
Автор Сообщение

Chel90RUS

Пол: Пол:Муж

Стаж: 5 лет 5 месяцев

Сообщений: 413

Россия
Рейтинг

post 05-Апр-2016 23:29 0[+]

[Цитировать] 

pic="http://static2.anidub.com/tracker/poster/49f2d8a088.jpg"
Хроники непобедимого Бахамута
Saijaku Muhai no Bahamut / Undefeated Bahamut Chronicle / 最弱無敗の神装機竜《バハムート》

Год выпуска: 2016
Жанр: Боевик, комедия, романтика, школа, этти
Страна: Япония
Тип: HDTV
Продолжительность: 12 серий ~ 25 мин
Дата выпуска: c 11.01.2016 по 28.03.2016
Режиссер: Андо Масаоми
Автор оригинала / Сценарист: Акацуки Тисато
Студия: Lerche
Озвучено: Ancord, Nika Lenina
Перевод: FooBoo
Тайминг и работа со звуком: Felix
Формат файла: Mp4
Аудио: AAC 48000Hz stereo 192kbps [A: Russian [rus] (aac lc, 48000 Hz, stereo, 192 kb/s)]
Видео: MPEG4 Video (H264) 1280x720 23.976fps 2377kbps [V: Alias Data Handler [eng] (h264 main L3.2, yuv420p, 1280x720, 2377 kb/s)]

General
Complete name : \[AniDub]_Saijaku_Muhai_no_Bahamut_[01]_[720p_x264_Aac]_[Ancord_NikaLenina].mp4
Format : MPEG-4
Format profile : Base Media
Codec ID : isom
File size : 446 MiB
Duration : 24mn 15s
Overall bit rate mode : Variable
Overall bit rate : 2 573 Kbps
Encoded date : UTC 2016-01-13 14:01:34
Tagged date : UTC 2016-01-13 14:01:34
Writing application : Yamb 2.1.0.0

Video
ID : 1
Format : AVC
Format/Info : Advanced Video Codec
Format profile : Main@L3.2
Format settings, CABAC : Yes
Format settings, ReFrames : 3 frames
Codec ID : avc1
Codec ID/Info : Advanced Video Coding
Duration : 24mn 14s
Bit rate mode : Variable
Bit rate : 2 377 Kbps
Maximum bit rate : 9 850 Kbps
Width : 1 280 pixels
Height : 720 pixels
Display aspect ratio : 16:9
Frame rate mode : Variable
Frame rate : 23.976 fps
Minimum frame rate : 23.976 fps
Maximum frame rate : 23.988 fps
Standard : NTSC
Color space : YUV
Chroma subsampling : 4:2:0
Bit depth : 8 bits
Scan type : Progressive
Bits/(Pixel*Frame) : 0.108
Stream size : 412 MiB (92%)
Language : English
Encoded date : UTC 2016-01-12 16:32:24
Tagged date : UTC 2016-01-13 14:01:50
Color range : Limited

Audio
ID : 2
Format : AAC
Format/Info : Advanced Audio Codec
Format profile : LC
Codec ID : 40
Duration : 24mn 15s
Bit rate mode : Variable
Bit rate : 192 Kbps
Maximum bit rate : 197 Kbps
Channel(s) : 2 channels
Channel positions : Front: L R
Sampling rate : 48.0 KHz
Compression mode : Lossy
Stream size : 33.3 MiB (7%)
Language : Russian
Encoded date : UTC 2016-01-13 14:01:49
Tagged date : UTC 2016-01-13 14:01:50


Описание:Многие десятки лет империя Аркадия была жутким местом. Все в ней прогибалось под страхом гнета императора, который не жалел никого. Даже членов собственной семьи. Но как известно, любой тирании рано или поздно приходит конец. Произошел переворот и на пепле империи Аркадия спустя пять лет процветает империя Атисмата.
Но все ли смирились с падением старой? Правда ли в новой все изменилось?
И кто был тем загадочным "Черным героем" благодаря которому этот переворот увенчался успехом?
info [Профиль]  [ЛС] 

Yetiorel

Пол: Пол:Муж

Стаж: 6 лет 8 месяцев

Сообщений: 63

Россия
Рейтинг

post 10-Апр-2016 23:20 (спустя 4 дня) [-]0[+]

[Цитировать] 

В релизе дичайшая реклама!!!!! Убиться можно...
info [Профиль]  [ЛС] 
Показать сообщения:    
Ответить на тему

Текущее время: 11-Дек 14:06

Часовой пояс: GMT + 4



Вы не можете начинать темы
Вы не можете отвечать на сообщения
Вы не можете редактировать свои сообщения
Вы не можете удалять свои сообщения
Вы не можете голосовать в опросах
Вы не можете прикреплять файлы к сообщениям
Вы не можете скачивать файлы