Ошибка

Тяжелый Объект / Heavy Object (TV) [1-24 из 24] [2015] [Приключения, комедия, меха] [HDTV720p] [Любительский (Многоголосый)]

Ответить на тему
 
Автор Сообщение

Chel90RUS

Пол: Пол:Муж

Стаж: 5 лет 5 месяцев

Сообщений: 413

Россия
Рейтинг

post 04-Апр-2016 18:08 0[+]

[Цитировать] 

pic="http://static2.anidub.com/tracker/poster/344a08909c.jpg"
Тяжелый Объект
Heavy Object / ヘヴィーオブジェクト

Год выпуска: 2015
Жанр: Приключения, комедия, меха
Страна: Япония
Тип: HDTV
Продолжительность: 24 серий ~ 25 мин
Дата выпуска: c 03.10.2015 по 26.03.2016
Режиссер: Ватанабэ Такаси
Автор оригинала / Сценарист: Камати Кадзум
Студия: J.C.Staff
Озвучено: Ancord, Fuurou, Nika Lenina, Jade
Перевод: sanyalitvyak, Seiya Loveless, Evafan, KANSAI, Oni
Тайминг и работа со звуком: Alden, Sheeze
Формат файла: Mp4
Аудио: AAC 48000Hz stereo 192kbps [A: English [eng] (aac lc, 48000 Hz, stereo, 192 kb/s)]
Видео: MPEG4 Video (H264) 1280x720 23.976fps 2869kbps [V: h264 main L4.1, yuv420p, 1280x720, 2869 kb/s]

General
Complete name : \[AniDub]_Heavy_Object_[01]_[720p_x264_Aac]_[Ancord_Fuurou_NikaLenina_Jade].mp4
Format : MPEG-4
Format profile : Base Media
Codec ID : isom
File size : 526 MiB
Duration : 23mn 59s
Overall bit rate mode : Variable
Overall bit rate : 3 066 Kbps
Encoded date : UTC 2015-10-05 18:22:18
Tagged date : UTC 2015-10-05 18:22:18
Writing application : Yamb 2.1.0.0

Video
ID : 1
Format : AVC
Format/Info : Advanced Video Codec
Format profile : Main@L4.1
Format settings, CABAC : Yes
Format settings, ReFrames : 4 frames
Codec ID : avc1
Codec ID/Info : Advanced Video Coding
Duration : 23mn 59s
Bit rate : 2 870 Kbps
Maximum bit rate : 14.5 Mbps
Width : 1 280 pixels
Height : 720 pixels
Display aspect ratio : 16:9
Frame rate mode : Constant
Frame rate : 23.976 fps
Color space : YUV
Chroma subsampling : 4:2:0
Bit depth : 8 bits
Scan type : Progressive
Bits/(Pixel*Frame) : 0.130
Stream size : 493 MiB (94%)
Writing library : x264 core 148 r2597 e86f3a1
Encoding settings : cabac=1 / ref=3 / deblock=1:0:0 / analyse=0x1:0x111 / me=hex / subme=7 / psy=1 / psy_rd=1.00:0.00 / mixed_ref=1 / me_range=16 / chroma_me=1 / trellis=1 / 8x8dct=0 / cqm=0 / deadzone=21,11 / fast_pskip=1 / chroma_qp_offset=-2 / threads=12 / lookahead_threads=2 / sliced_threads=0 / nr=0 / decimate=1 / interlaced=0 / bluray_compat=0 / constrained_intra=0 / bframes=3 / b_pyramid=2 / b_adapt=1 / b_bias=0 / direct=1 / weightb=1 / open_gop=0 / weightp=2 / keyint=240 / keyint_min=1 / scenecut=40 / intra_refresh=0 / rc_lookahead=40 / rc=crf / mbtree=1 / crf=20.0 / qcomp=0.60 / qpmin=0 / qpmax=69 / qpstep=4 / ip_ratio=1.40 / aq=1:1.50
Encoded date : UTC 2015-10-02 16:25:39
Tagged date : UTC 2015-10-05 18:22:30
Color range : Limited
Color primaries : BT.709
Transfer characteristics : BT.709
Matrix coefficients : BT.709

Audio
ID : 2
Format : AAC
Format/Info : Advanced Audio Codec
Format profile : LC
Codec ID : 40
Duration : 23mn 59s
Bit rate mode : Variable
Bit rate : 192 Kbps
Maximum bit rate : 197 Kbps
Channel(s) : 2 channels
Channel positions : Front: L R
Sampling rate : 48.0 KHz
Compression mode : Lossy
Stream size : 33.0 MiB (6%)
Language : English
Encoded date : UTC 2015-10-05 18:22:29
Tagged date : UTC 2015-10-05 18:22:30


Описание:Главный герой - парень по имени Квенсер, живущий в эпоху невероятного технического прогресса и мечтающий стать проектировщиком «объектов» — огромных боевых машин, способных в одиночку уничтожать целые армии. Эти самые машины совершили настоящий прорыв в военном деле. Такой военной мощи человечество ранее ещё не встречало.
Дабы изучить «объекты», Квенсер решает отправиться на военную базу Аляски. Однако не всё так гладко, как хотелось бы. После встречи с Милиндой, элитным пилотом одного из «объектов», нашему герою открывается мрачная правда об этих угрюмых стальных монстрах и их пилотах. Что же будет ждать его там? Кто его встретит? Холод и гнев бездушных машин? Или лишь шелест ветра и ничего более..?
01. Солдатики, опутавшие Гулливера. Битва в суровых снегах Аляски. Часть первая.
02. Солдатики, опутавшие Гулливера. Битва в суровых снегах Аляски. Часть вторая
03. Лилипуты, пленившие Гулливера. Битва в снегах Аляски. Часть третья.
04. Мальчик с пальчик бежит по залежам нефти. Блокада переправы через Гибралтар. Часть первая.
05. Мальчик с пальчик бежит по залежам нефти. Блокада переправы через Гибралтар. Часть вторая.
06. Война муравьёв с кузнечиком. Битва с Военной державой Океании. Часть первая.
07. Война муравьёв с кузнечиком. Битва с Военной державой Океании. Часть вторая.
08. Война муравьёв с кузнечиком. Битва с Военной державой Океании. Часть третья.
09. Гонка по уши в грязи. Битва за Антарктиду.
10. Гонка на треножниках в горах - вопрос жизни и смерти. Артиллерийская битва в горах Игуазу. Часть первая.
11. Гонка на треножниках в горах - вопрос жизни и смерти. Артиллерийская битва в горах Игуазу. Часть вторая.
12. Гонка на треножниках в горах - вопрос жизни и смерти. Артиллерийская битва в горах Игуазу. Часть третья.
13. Уничтожение сил врага: Кавалерия на подходе. Всепоглащающая война в Амазонии. Часть первая.
14. Уничтожение сил врага: Кавалерия на подходе. Всепоглащающая война в Амазонии. Часть вторая.
15. Даже в мусоре найдётся золото. Перехват сражения на Аляске. Часть первая.
16. Даже в мусоре найдётся золото. Перехват сражения на Аляске. Часть вторая.
17. Шахта с грудой денег: Ночное нападение на Камчатском полуострове. Часть первая.
18. Шахта с грудой денег: Ночное нападение на Камчатском полуострове. Часть вторая.
19. Шахта с грудой денег: Ночное нападение на Камчатском полуострове. Часть третья.
20. Честь за деньги не купишь. Критический конфликт на острове Виктория. Часть первая.
21. Честь за деньги не купишь. Критический конфликт на острове Виктория. Часть вторая.
22. Честь за деньги не купишь. Критический конфликт на острове Виктория. Часть третья.
23. Реквием по полевым цветам. Битва на уничтожение крошки Магнум. Часть первая.
24. Реквием по полевым цветам. Битва на уничтожение крошки Магнум. Часть вторая.
info [Профиль]  [ЛС] 

Ritsu

Пол: Пол:Муж

Стаж: 5 лет 5 месяцев

Сообщений: 856

Австралия
Рейтинг

post 05-Апр-2016 01:02 (спустя 6 часов) [-]0[+]

[Цитировать] 

Ну, кто смотрел?
Как оно вообще?

_________________
Флудите вместе с Рицу и будет вам счастье! ^__^

"...Зажжем рок в этой дыре!.."
info [Профиль]  [ЛС] 

Chel90RUS

Пол: Пол:Муж

Стаж: 5 лет 5 месяцев

Сообщений: 413

Россия
Рейтинг

post 05-Апр-2016 01:08 (спустя 5 минут) [-]0[+]

[Цитировать] 

Ritsu писал(а):

Ну, кто смотрел?
Как оно вообще?
Норм

_________________
info [Профиль]  [ЛС] 
Показать сообщения:    
Ответить на тему

Текущее время: 08-Дек 00:24

Часовой пояс: GMT + 4



Вы не можете начинать темы
Вы не можете отвечать на сообщения
Вы не можете редактировать свои сообщения
Вы не можете удалять свои сообщения
Вы не можете голосовать в опросах
Вы не можете прикреплять файлы к сообщениям
Вы не можете скачивать файлы