Ошибка

Харучика: Юность Харуты и Чики / Haruchika: Haruta to Chika wa Seishun Suru (TV) [1-12 из 12] [2016] [Романтика, школа, повседневность] [HDTV720p] [Любительский]

Ответить на тему
 
Автор Сообщение

Chel90RUS

Пол: Пол:Муж

Стаж: 5 лет 5 месяцев

Сообщений: 413

Россия
Рейтинг

post 03-Апр-2016 12:04 0[+]

[Цитировать] 

pic="http://static2.anidub.com/tracker/poster/4ff727e2fa.jpg"
Харучика: Юность Харуты и Чики
Haruchika: Haruta to Chika wa Seishun Suru / ハルチカ ~ハルタとチカは青春する~

Год выпуска: 2016
Жанр: Романтика, школа, повседневность
Страна: Япония
Тип: HDTV
Продолжительность: 12 серий ~ 25 мин
Дата выпуска: c 07.01.2016 по 24.03.2016
Режиссер: Хасимото Масакадзу
Автор оригинала / Сценарист: Хацуно Сэй
Студия: P.A. Works
Озвучено: BalFor, Esther
Перевод: Светлана-чан

Формат файла: Mp4
Аудио: AAC 48000Hz stereo 192kbps [A: Russian [rus] (aac lc, 48000 Hz, stereo, 192 kb/s)]
Видео: MPEG4 Video (H264) 1280x720 23.976fps 1653kbps [V: 264 (h264 high L4.1, yuv420p, 1280x720, 1653 kb/s)]

General
Complete name : \[AniDub]_Haruchika-Haruta_to_Chika_wa_Seishun_Suru_[01]_[720p]_[BalFor_Esther].mp4
Format : MPEG-4
Format profile : Base Media
Codec ID : isom
File size : 317 MiB
Duration : 23mn 59s
Overall bit rate mode : Variable
Overall bit rate : 1 850 Kbps
Encoded date : UTC 2016-01-08 11:36:23
Tagged date : UTC 2016-01-08 11:36:23
Writing application : Yamb 2.1.0.0

Video
ID : 1
Format : AVC
Format/Info : Advanced Video Codec
Format profile : High@L4.1
Format settings, CABAC : Yes
Format settings, ReFrames : 4 frames
Codec ID : avc1
Codec ID/Info : Advanced Video Coding
Duration : 23mn 59s
Bit rate : 1 653 Kbps
Maximum bit rate : 12.9 Mbps
Width : 1 280 pixels
Height : 720 pixels
Display aspect ratio : 16:9
Frame rate mode : Constant
Frame rate : 23.976 fps
Color space : YUV
Chroma subsampling : 4:2:0
Bit depth : 8 bits
Scan type : Progressive
Bits/(Pixel*Frame) : 0.075
Stream size : 284 MiB (89%)
Title : 264
Writing library : x264 core 129 r2245+729M 1a52e03
Encoding settings : cabac=1 / ref=4 / deblock=1:1:-1 / analyse=0x3:0x113 / me=umh / subme=9 / psy=1 / fade_compensate=0.00 / psy_rd=1.00:0.00 / mixed_ref=1 / me_range=24 / chroma_me=1 / trellis=2 / 8x8dct=1 / cqm=0 / deadzone=21,11 / fast_pskip=1 / chroma_qp_offset=-2 / threads=8 / lookahead_threads=1 / sliced_threads=0 / nr=0 / decimate=1 / interlaced=0 / bluray_compat=0 / constrained_intra=0 / fgo=0 / bframes=9 / b_pyramid=2 / b_adapt=2 / b_bias=0 / direct=1 / weightb=1 / open_gop=0 / weightp=2 / keyint=240 / keyint_min=24 / scenecut=40 / intra_refresh=0 / rc=crf / mbtree=0 / crf=18.5 / qcomp=0.72 / qpmin=0 / qpmax=69 / qpstep=4 / ip_ratio=1.40 / pb_ratio=1.30 / aq=1:0.85
Encoded date : UTC 2016-01-06 18:46:36
Tagged date : UTC 2016-01-08 11:36:34
Color range : Limited
Color primaries : BT.709
Transfer characteristics : BT.709
Matrix coefficients : BT.709

Audio
ID : 2
Format : AAC
Format/Info : Advanced Audio Codec
Format profile : LC
Codec ID : 40
Duration : 23mn 59s
Bit rate mode : Variable
Bit rate : 192 Kbps
Maximum bit rate : 196 Kbps
Channel(s) : 2 channels
Channel positions : Front: L R
Sampling rate : 48.0 KHz
Compression mode : Lossy
Stream size : 33.0 MiB (10%)
Language : Russian
Encoded date : UTC 2016-01-08 11:36:34
Tagged date : UTC 2016-01-08 11:36:34


Описание:Чика Хомура и Харута Камиджо — друзья детства, которых объединяет не только крепкая дружба, но и большая любовь к музыке. Ведомые одинаковой страстью, ребята упорно тренируются игре в стенах комнаты, принадлежащей школьному клубу духовых инструментов. Но два человека — это слишком мало, чтобы клуб мог держаться на плаву. И вот перед юными музыкантами встает непростая задача: во что бы то ни стало им необходимо отыскать новых участников. Только это может спасти клуб от закрытия. Что ни говори, задачка трудновата в своем выполнении. А тут еще все эти странные события, происходящие на территории школы. События, которые Чика и Харута должны непременно расследовать.
info [Профиль]  [ЛС] 
Показать сообщения:    
Ответить на тему

Текущее время: 05-Дек 06:33

Часовой пояс: GMT + 4



Вы не можете начинать темы
Вы не можете отвечать на сообщения
Вы не можете редактировать свои сообщения
Вы не можете удалять свои сообщения
Вы не можете голосовать в опросах
Вы не можете прикреплять файлы к сообщениям
Вы не можете скачивать файлы