Ошибка

Удача и Логика / Luck and Logic (TV) [1-12 из 12] [2016] [Военный, фэнтези, приключения] [HDTV720p] [Любительский (Многоголосый)]

Ответить на тему
 
Автор Сообщение

Chel90RUS

Пол: Пол:Муж

Стаж: 5 лет 5 месяцев

Сообщений: 413

Россия
Рейтинг

post 02-Апр-2016 13:02 0[+]

[Цитировать] 

pic="http://static2.anidub.com/tracker/poster/5a88b91989.jpg"
Удача и Логика
Luck and Logic / ラクエンロジック

Год выпуска: 2016
Жанр: Военный, фэнтези, приключения
Страна: Япония
Тип: HDTV
Продолжительность: 12 серий ~ 25 мин
Дата выпуска: с 09.01.2016 по 26.03.2016
Режиссер: Коити Тигира
Автор оригинала / Сценарист: Такахаси Юя
Студия: Dogakobo
Озвучено: Гамлетка Цезаревна, Kiara_Laine, 9й Неизвестный
Перевод: GoggerToy
Тайминг и работа со звуком: IdiAlex, Sharon, Fraksinus
Формат файла: Mp4
Аудио: Dolby AC3 48000Hz stereo 448kbps [A: ac3, 48000 Hz, stereo, 448 kb/s]
Видео: MPEG4 Video (H264) 1280x720 23.976fps 2685kbps [V: h264 high L4.1, yuv420p, 1280x720, 2685 kb/s]

General
Complete name : [AniDub]_Luck_and_Logic_[01]_[1280x720_x264]_[Hamletka_Cezarevna_ Kiara_Laine_9th_Unknown].mp4
Format : MPEG-4
Format profile : Base Media
Codec ID : isom
File size : 538 MiB
Duration : 23mn 59s
Overall bit rate : 3 136 Kbps
Encoded date : UTC 2016-01-13 09:16:22
Tagged date : UTC 2016-01-13 09:16:22

Video
ID : 1
Format : AVC
Format/Info : Advanced Video Codec
Format profile : High@L4.1
Format settings, CABAC : Yes
Format settings, ReFrames : 4 frames
Codec ID : avc1
Codec ID/Info : Advanced Video Coding
Duration : 23mn 59s
Bit rate : 2 686 Kbps
Maximum bit rate : 16.2 Mbps
Width : 1 280 pixels
Height : 720 pixels
Display aspect ratio : 16:9
Frame rate mode : Constant
Frame rate : 23.976 fps
Color space : YUV
Chroma subsampling : 4:2:0
Bit depth : 8 bits
Scan type : Progressive
Bits/(Pixel*Frame) : 0.122
Stream size : 461 MiB (86%)
Writing library : x264 core 129 r2245+729M 1a52e03
Encoding settings : cabac=1 / ref=4 / deblock=1:1:-1 / analyse=0x3:0x113 / me=umh / subme=9 / psy=1 / fade_compensate=0.00 / psy_rd=1.00:0.00 / mixed_ref=1 / me_range=24 / chroma_me=1 / trellis=2 / 8x8dct=1 / cqm=0 / deadzone=21,11 / fast_pskip=1 / chroma_qp_offset=-2 / threads=8 / lookahead_threads=1 / sliced_threads=0 / nr=0 / decimate=1 / interlaced=0 / bluray_compat=0 / constrained_intra=0 / fgo=0 / bframes=9 / b_pyramid=2 / b_adapt=2 / b_bias=0 / direct=1 / weightb=1 / open_gop=0 / weightp=2 / keyint=240 / keyint_min=24 / scenecut=40 / intra_refresh=0 / rc=crf / mbtree=0 / crf=18.5 / qcomp=0.72 / qpmin=0 / qpmax=69 / qpstep=4 / ip_ratio=1.40 / pb_ratio=1.30 / aq=1:0.85
Encoded date : UTC 2016-01-09 16:46:06
Tagged date : UTC 2016-01-13 09:16:37
Color range : Limited
Color primaries : BT.709
Transfer characteristics : BT.709
Matrix coefficients : BT.709

Audio
ID : 2
Format : AC-3
Format/Info : Audio Coding 3
Mode extension : CM (complete main)
Format settings, Endianness : Big
Codec ID : ac-3
Duration : 23mn 59s
Bit rate mode : Constant
Bit rate : 448 Kbps
Channel(s) : 2 channels
Channel positions : Front: L R
Sampling rate : 48.0 KHz
Bit depth : 16 bits
Compression mode : Lossy
Stream size : 76.9 MiB (14%)
Encoded date : UTC 2016-01-13 09:16:37
Tagged date : UTC 2016-01-13 09:16:37


Описание:В 922 году Л.В. человечество сталкивается с беспрецедентным кризисом. После завершения столетней войны в мифическом мире Тетрахэвен проигравшая сторона, маджины, в поисках убежища вторгается в человеческий мир Септпия. Правительство Септпии вынуждено бороться против захватчиков, используя для этого логикалистов, входящих в состав ALCA — специального подразделения полиции, созданного для защиты от захватчиков. Логикалисты владеют особыми силами, позволяющими им взаимодействовать с богами из другого мира.
Однажды Йошичика Цуруги — простой парень, не владеющий «Логикой» и мирно проживающий со своей семьей — попадает в переделку и, помогая людям, на которых напали маджины, встречает прекрасную богиню Афину. Как вскоре выясняется, она владеет «Логикой» — тем самым, чего недостает Йошичике. Эта встреча оказывается судьбоносной для обоих.
Теперь будущее мира зависит от «Удачи», «Логики» и логикалистов.
©Guard
info [Профиль]  [ЛС] 
Показать сообщения:    
Ответить на тему

Текущее время: 03-Дек 04:27

Часовой пояс: GMT + 4



Вы не можете начинать темы
Вы не можете отвечать на сообщения
Вы не можете редактировать свои сообщения
Вы не можете удалять свои сообщения
Вы не можете голосовать в опросах
Вы не можете прикреплять файлы к сообщениям
Вы не можете скачивать файлы