Ошибка

Дядька Осомацу / Osomatsu-san (TV-1) [1-25 + SP из 25 + SP] [2015] [Комедия, пародия] [HDTV720p] [Любительский] [18+]

Ответить на тему
 
Автор Сообщение

Chel90RUS

Пол: Пол:Муж

Стаж: 5 лет 5 месяцев

Сообщений: 413

Россия
Рейтинг

post 01-Апр-2016 02:06 1[+]

[Цитировать] 

pic="http://static2.anidub.com/tracker/poster/681c0fe84b.jpg"
Дядька Осомацу
Osomatsu-san / おそ松さん

Год выпуска: 2015
Жанр: Комедия, пародия
Страна: Япония
Тип: HDTV
Продолжительность: 25 серий ~ 25 мин
Дата выпуска: c 06.10.2015 по 29.03.2016
Режиссер: Фудзита Ёити
Автор оригинала / Сценарист: Акацука Фудзио
Студия: Studio Pierrot
Озвучено: 9й Неизвестный, Гамлетка Цезаревна 18+
Перевод: 9й Неизвестный
Тайминг и работа со звуком: 9й Неизвестный
Формат файла: MKV
Аудио: Dolby AC3 48000Hz stereo 448kbps [A: ac3, 48000 Hz, stereo, 448 kb/s [default]]
Видео: MPEG4 Video (H264) 1280x720 23.976fps [V: h264 high L4.0, yuv420p, 1280x720 [default]]

General
Unique ID : 187996400928816753175341380840820485406 (0x8D6ECA303D6F390A8DC70FBA5836AD1E)
Complete name : \[AniDub]_Osomatsu-san_[01]_[1280x720_x264]_[9th_Unknown_Hamletka_Cezarevna].mkv
Format : Matroska
Format version : Version 2
File size : 379 MiB
Duration : 23mn 49s
Overall bit rate : 2 223 Kbps
Encoded date : UTC 2015-10-09 20:56:19
Writing application : mkvmerge v7.0.0 ('Where We Going') 32bit built on Jun 9 2014 15:08:34
Writing library : libebml v1.3.0 + libmatroska v1.4.1
Attachements : OpenSans-Semibold.ttf
DURATION : 00:23:49.824000000
NUMBER_OF_FRAMES : 44682
NUMBER_OF_BYTES : 80070144
_STATISTICS_WRITING_APP : mkvmerge v7.0.0 ('Where We Going') 32bit built on Jun 9 2014 15:08:34
_STATISTICS_WRITING_DATE_UTC : 2015-10-09 20:56:19
_STATISTICS_TAGS : BPS DURATION NUMBER_OF_FRAMES NUMBER_OF_BYTES

Video
ID : 1
Format : AVC
Format/Info : Advanced Video Codec
Format profile : High@L4
Format settings, CABAC : Yes
Format settings, ReFrames : 6 frames
Codec ID : V_MPEG4/ISO/AVC
Duration : 23mn 49s
Bit rate : 1 776 Kbps
Width : 1 280 pixels
Height : 720 pixels
Display aspect ratio : 16:9
Frame rate mode : Constant
Frame rate : 23.976 fps
Color space : YUV
Chroma subsampling : 4:2:0
Bit depth : 8 bits
Scan type : Progressive
Bits/(Pixel*Frame) : 0.080
Stream size : 295 MiB (78%)
Writing library : x264 core 120 r2120 0c7dab9
Encoding settings : cabac=1 / ref=6 / deblock=1:1:1 / analyse=0x3:0x113 / me=umh / subme=8 / psy=1 / psy_rd=0.40:0.00 / mixed_ref=1 / me_range=16 / chroma_me=1 / trellis=1 / 8x8dct=1 / cqm=0 / deadzone=21,11 / fast_pskip=1 / chroma_qp_offset=-2 / threads=4 / sliced_threads=0 / nr=0 / decimate=1 / interlaced=0 / bluray_compat=0 / constrained_intra=0 / bframes=3 / b_pyramid=2 / b_adapt=2 / b_bias=0 / direct=3 / weightb=1 / open_gop=0 / weightp=2 / keyint=250 / keyint_min=23 / scenecut=40 / intra_refresh=0 / rc_lookahead=50 / rc=2pass / mbtree=1 / bitrate=1776 / ratetol=1.0 / qcomp=0.60 / qpmin=0 / qpmax=69 / qpstep=4 / cplxblur=20.0 / qblur=0.5 / vbv_maxrate=3552 / vbv_bufsize=8880 / nal_hrd=none / ip_ratio=1.40 / aq=1:0.60
Default : Yes
Forced : No
_STATISTICS_WRITING_APP : mkvmerge v7.0.0 ('Where We Going') 32bit built on Jun 9 2014 15:08:34
_STATISTICS_WRITING_DATE_UTC : 2015-10-09 20:56:19
_STATISTICS_TAGS : BPS DURATION NUMBER_OF_FRAMES NUMBER_OF_BYTES
DURATION : 00:23:49.720000000
NUMBER_OF_FRAMES : 34279
NUMBER_OF_BYTES : 316744413

Audio
ID : 2
Format : AC-3
Format/Info : Audio Coding 3
Mode extension : CM (complete main)
Format settings, Endianness : Big
Codec ID : A_AC3
Duration : 23mn 49s
Bit rate mode : Constant
Bit rate : 448 Kbps
Channel(s) : 2 channels
Channel positions : Front: L R
Sampling rate : 48.0 KHz
Compression mode : Lossy
Stream size : 76.4 MiB (20%)
Default : Yes
Forced : No


Описание:Было в семье Мацаю 6 непослушных и озорных сыновей. Во времена олдскула они были школьниками, но анимешные времена и нравы меняются и сыновья меняются вместе с ними.

АХТУНГ! Оставь свой мозг, всяк это смотрящий!
Добавлена 3.5 серия 18/05/5016
info [Профиль]  [ЛС] 

Fiend

Пол: Пол:Муж

Стаж: 7 лет 8 месяцев

Сообщений: 138

Украина
Рейтинг

post 01-Апр-2016 16:23 (спустя 14 часов) [-]1[+]

[Цитировать] 

Вот беда, русская речь с японской сливаются сильно. (((
info [Профиль]  [ЛС] 

Chel90RUS

Пол: Пол:Муж

Стаж: 5 лет 5 месяцев

Сообщений: 413

Россия
Рейтинг

post 02-Апр-2016 11:25 (спустя 19 часов) [-]-4[+]

[Цитировать] 

Fiend писал(а):

Вот беда, русская речь с японской сливаются сильно. (((
Всё норм, это у тебя так

_________________
info [Профиль]  [ЛС] 

Chel90RUS

Пол: Пол:Муж

Стаж: 5 лет 5 месяцев

Сообщений: 413

Россия
Рейтинг

post 18-Май-2016 17:10 (спустя 1 месяц 16 дней) [-]0[+]

[Цитировать] 

Добавлена 3.5 серия 18/05/5016

_________________
info [Профиль]  [ЛС] 

DARKCAT1989

Стаж: 6 лет 10 месяцев

Сообщений: 264

Россия
Рейтинг

post 19-Май-2016 20:52 (спустя 1 день 3 часа) [-]0[+]

[Цитировать] 

а рус.сабы есть?
info [Профиль]  [ЛС] 

lepsik

Пол: Пол:Муж

Стаж: 5 лет 5 месяцев

Сообщений: 72

Рейтинг

post 19-Май-2016 22:02 (спустя 1 час 10 минут) [-]0[+]

[Цитировать] 

бесит что нигде нет на оригинале с сабами. перевод вечно таким дибильным голосом((
info [Профиль]  [ЛС] 

NIKE007

Пол: Пол:Муж

Стаж: 5 лет 3 месяца

Сообщений: 68

Россия
Рейтинг

post 20-Май-2016 10:00 (спустя 11 часов) [-]0[+]

[Цитировать] 

lepsik писал(а):

бесит что нигде нет на оригинале с сабами. перевод вечно таким дибильным голосом((
а вам ссылку оставлю на сабы
info [Профиль]  [ЛС] 

ffs2001

Стаж: 5 лет 2 месяца

Сообщений: 37

Рейтинг

post 20-Май-2016 16:22 (спустя 6 часов) [-]1[+]

[Цитировать] 

Мне лично озвучка понравилась.
Спасибо озвучивающим и раздающему.
info [Профиль]  [ЛС] 
Показать сообщения:    
Ответить на тему

Текущее время: 11-Дек 10:13

Часовой пояс: GMT + 4



Вы не можете начинать темы
Вы не можете отвечать на сообщения
Вы не можете редактировать свои сообщения
Вы не можете удалять свои сообщения
Вы не можете голосовать в опросах
Вы не можете прикреплять файлы к сообщениям
Вы не можете скачивать файлы