Ошибка

Божественные врата / Divine Gate (TV) [1-12 из 12] [2016] [Приключения, мистика, фантастика] [HDTV720p] [Профессиональный (Многоголосый)]

Ответить на тему
 
Автор Сообщение

Chel90RUS

Пол: Пол:Муж

Стаж: 5 лет 5 месяцев

Сообщений: 413

Россия
Рейтинг

post 30-Мар-2016 00:20 0[+]

[Цитировать] 

pic="http://static2.anidub.com/tracker/poster/71cad2f3e0.jpg"
Божественные врата
Divine Gate / ディバインゲート

Год выпуска: 2016
Жанр: Приключения, мистика, фантастика
Страна: Япония
Тип: HDTV
Продолжительность: 12 серий ~ 25 мин
Дата выпуска: c 08.01.2016 по 25.03.2016
Режиссер: Абэ Нориюки
Автор оригинала / Сценарист: Такахаси Нацуко
Озвучено: Студийная банда AD Давид Петросян, Влад Дуров, Гамлетка Цезаревна, 9й Неизвестный, Торгиль, Demetra, Esther, JAM, BalFor, Cuba77, OSLIKt
Перевод: Norika
Тайминг и работа со звуком: BalFor
Студия: Studio Pierrot
Аудио: AAC 48000Hz stereo 183kbps [A: ?????????? ????? Apple [eng] (aac lc, 48000 Hz, stereo, 183 kb/s)]
Видео: MPEG4 Video (H264) 1280x720 23.976fps 2599kbps [V: 264 (h264 high L4.1, yuv420p, 1280x720, 2599 kb/s)]

General
Complete name : \[AniDub]_Divine_Gate_[01]_[720p]_[Studio_AD].mp4
Format : MPEG-4
Format profile : Base Media
Codec ID : isom
File size : 468 MiB
Duration : 23mn 35s
Overall bit rate mode : Variable
Overall bit rate : 2 777 Kbps
Encoded date : UTC 2016-01-09 22:36:28
Tagged date : UTC 2016-01-09 22:36:28
Writing application : Yamb 2.1.0.0
Video
ID : 1
Format : AVC
Format/Info : Advanced Video Codec
Format profile : High@L4.1
Format settings, CABAC : Yes
Format settings, ReFrames : 4 frames
Codec ID : avc1
Codec ID/Info : Advanced Video Coding
Duration : 23mn 29s
Bit rate : 2 600 Kbps
Maximum bit rate : 14.7 Mbps
Width : 1 280 pixels
Height : 720 pixels
Display aspect ratio : 16:9
Frame rate mode : Constant
Frame rate : 23.976 fps
Color space : YUV
Chroma subsampling : 4:2:0
Bit depth : 8 bits
Scan type : Progressive
Bits/(Pixel*Frame) : 0.118
Stream size : 437 MiB (93%)
Title : 264
Writing library : x264 core 129 r2245+729M 1a52e03
Encoding settings : cabac=1 / ref=4 / deblock=1:1:-1 / analyse=0x3:0x113 / me=umh / subme=9 / psy=1 / fade_compensate=0.00 / psy_rd=1.00:0.00 / mixed_ref=1 / me_range=24 / chroma_me=1 / trellis=2 / 8x8dct=1 / cqm=0 / deadzone=21,11 / fast_pskip=1 / chroma_qp_offset=-2 / threads=8 / lookahead_threads=1 / sliced_threads=0 / nr=0 / decimate=1 / interlaced=0 / bluray_compat=0 / constrained_intra=0 / fgo=0 / bframes=9 / b_pyramid=2 / b_adapt=2 / b_bias=0 / direct=1 / weightb=1 / open_gop=0 / weightp=2 / keyint=240 / keyint_min=24 / scenecut=40 / intra_refresh=0 / rc=crf / mbtree=0 / crf=18.5 / qcomp=0.72 / qpmin=0 / qpmax=69 / qpstep=4 / ip_ratio=1.40 / pb_ratio=1.30 / aq=1:0.85
Encoded date : UTC 2016-01-08 17:49:28
Tagged date : UTC 2016-01-09 22:37:32
Color range : Limited
Color primaries : BT.709
Transfer characteristics : BT.709
Matrix coefficients : BT.709

Audio
ID : 2
Format : AAC
Format/Info : Advanced Audio Codec
Format profile : LC
Codec ID : 40
Duration : 23mn 35s
Bit rate mode : Variable
Bit rate : 184 Kbps
Maximum bit rate : 272 Kbps
Channel(s) : 2 channels
Channel positions : Front: L R
Sampling rate : 48.0 KHz
Compression mode : Lossy
Stream size : 31.0 MiB (7%)
Title : ?????????? ????? Apple
Language : English
Encoded date : UTC 2016-01-09 22:37:21
Tagged date : UTC 2016-01-09 22:37:32


Описание:Впоследствии открытия Божественных врат, мир людей, небеса и преисподняя стали едины, начав эпоху хаоса и влеча за собой мир, где людские желания зарождают опасные конфликты...
Для восстановления порядка был сформирован Всемирный совет, благодаря чему порядок был успешно восстановлен, а врата стали лишь легендой. И вот, спустя несколько лет, мир снова нуждается в спасении, и Всемирный совет создает группу из девушек и юношей, которые хотят достичь для своих личных целей Врата, которые по легендам способны изменить мир.
Что ждет их за Вратами? И смогут ли они вообще изменить мир, достигнув Врат? Но самый главный вопрос: «Что изменится? Прошлое или же будущее?»
info [Профиль]  [ЛС] 
Показать сообщения:    
Ответить на тему

Текущее время: 05-Дек 12:26

Часовой пояс: GMT + 4



Вы не можете начинать темы
Вы не можете отвечать на сообщения
Вы не можете редактировать свои сообщения
Вы не можете удалять свои сообщения
Вы не можете голосовать в опросах
Вы не можете прикреплять файлы к сообщениям
Вы не можете скачивать файлы